×

¿Problemas para descargar con Mozilla, EDGE? Deshabilita la opción "Abrir vinculos en una pestaña nueva" tal como lo muestra ésta imagen.

True Detective (2015) Segunda Temporada REMUX 1080p latino – CMHDD

266 vistas

Información de True Detective (2015) Segunda Temporada REMUX 1080p latino – CMHDD

Datos de la película

  • Calidad:
  • Audio: Español Latino DTS 2.0 BLURAY - Ingles DTS 5.1 BLURAY
  • Subtitulos: Español Latino SRT- FORZADOS SRT
  • Resolución: 1920x1080p
  • Formato: MKV
  • Codec: H.264
  • Encoder: Dracarys
  • Mediainfo: Clic para Mostrar Datos Ver
  • Format                      : Matroska
    Format version              : Version 4
    File size                   : 11.0 GiB
    Duration                    : 1 h 0 min
    Overall bit rate mode       : Variable
    Overall bit rate            : 26.0 Mb/s
    Movie name                  : True Detective (2015) [S02E01] REMUX 1080p latino - CMHDD
    Encoded date                : UTC 2021-01-02 17:36:29
    Writing application         : mkvmerge v51.0.0 ('I Wish') 64-bit
    Writing library             : libebml v1.4.0 + libmatroska v1.6.2

    Video
    ID                          : 1
    Format                      : AVC
    Format/Info                 : Advanced Video Codec
    Format profile              : High@L4.1
    Format settings             : CABAC / 4 Ref Frames
    Format settings, CABAC      : Yes
    Format settings, Reference  : 4 frames
    Codec ID                    : V_MPEG4/ISO/AVC
    Duration                    : 1 h 0 min
    Bit rate mode               : Variable
    Bit rate                    : 21.9 Mb/s
    Maximum bit rate            : 36.0 Mb/s
    Width                       : 1 920 pixels
    Height                      : 1 080 pixels
    Display aspect ratio        : 16:9
    Frame rate mode             : Constant
    Frame rate                  : 23.976 (24000/1001) FPS
    Color space                 : YUV
    Chroma subsampling          : 4:2:0
    Bit depth                   : 8 bits
    Scan type                   : Progressive
    Bits/(Pixel*Frame)          : 0.441
    Stream size                 : 9.23 GiB (84%)
    Default                     : Yes
    Forced                      : No

    Audio #1
    ID                          : 2
    Format                      : DTS XLL
    Format/Info                 : Digital Theater Systems
    Commercial name             : DTS-HD Master Audio
    Codec ID                    : A_DTS
    Duration                    : 1 h 0 min
    Bit rate mode               : Variable
    Bit rate                    : 3 325 kb/s
    Channel(s)                  : 6 channels
    Channel layout              : C L R Ls Rs LFE
    Sampling rate               : 48.0 kHz
    Frame rate                  : 93.750 FPS (512 SPF)
    Bit depth                   : 24 bits
    Compression mode            : Lossless
    Stream size                 : 1.40 GiB (13%)
    Language                    : English
    Default                     : No
    Forced                      : No

    Audio #2
    ID                          : 3
    Format                      : DTS
    Format/Info                 : Digital Theater Systems
    Codec ID                    : A_DTS
    Duration                    : 1 h 0 min
    Bit rate mode               : Constant
    Bit rate                    : 768 kb/s
    Channel(s)                  : 2 channels
    Channel layout              : Lt Rt
    Sampling rate               : 48.0 kHz
    Frame rate                  : 93.750 FPS (512 SPF)
    Bit depth                   : 24 bits
    Compression mode            : Lossy
    Stream size                 : 331 MiB (3%)
    Language                    : Spanish
    Default                     : Yes
    Forced                      : No

    Text #1
    ID                          : 4
    Format                      : PGS
    Muxing mode                 : zlib
    Codec ID                    : S_HDMV/PGS
    Codec ID/Info               : Picture based subtitle format used on BDs/HD-DVDs
    Duration                    : 56 min 11 s
    Bit rate                    : 33.8 kb/s
    Count of elements           : 1378
    Stream size                 : 13.6 MiB (0%)
    Language                    : Spanish
    Default                     : No
    Forced                      : No

    Text #2
    ID                          : 5
    Format                      : UTF-8
    Codec ID                    : S_TEXT/UTF8
    Codec ID/Info               : UTF-8 Plain Text
    Duration                    : 47 min 36 s
    Bit rate                    : 3 b/s
    Count of elements           : 42
    Stream size                 : 1.13 KiB (0%)
    Language                    : Spanish
    Default                     : Yes
    Forced                      : No

  • Peso: 89.3 GiB Total

Sinopsis


SINOPSIS

La segunda entrega de True Detective cuenta con ocho episodios. En ellos, la trama se centra en un grupo de detectives y un criminal que se ven envueltos en una conspiración tras un asesinato.

El grupo policial está formado por tres detectives, Ray Velcoro, Paul Woodrugh y Ani Bezzerides. Velcoro (Colin Farrel), cuya lealtad se ve sujeta a un departamento corrupto; Woodrugh (Taylor Kitsch), veterano en el cuerpo y que huye de un pasado que le atormenta; y Bezzerides (Rachel McAdams), el contrapunto femenino, una detective con una ética inflexible. Por su parte, Frank Semyon (Vince Vaughn) es un criminal que ve peligrar sus negocios tras la muerte de un compañero.

A ellos se suman otros personajes como Jordan (Kelly Reilly), que es la mujer de Semyon; Katherine David (Michael Hyatt), una abogada criminalista cuyo único fin es salirse con la suya; o Elvis (Michael Irby), detective socio de Bezzerides.

Otros actores que aparecerán durante estos capítulos serán Leven Rambin, Yara Martínez, Adria Arjona, James Frain, Lolita Davidovich y Riley Smith.

Ficha técnica

  • Titulo original: True Detective
  • Fecha de lanzamiento: 12-01-2014 (US)
  • Director: Nic Pizzolatto
  • Género: Drama

Video trailer de la película

Enlaces de descarga

Rip de Bluray

Descargar True Detective (2015) Segunda Temporada REMUX 1080p latino – CMHDD


Aportes de DPeliculasHDmega la pass es:dpeliculashdmega.org Aportes de CinemaniaHD la pass es:cinemaniahdd.com
Guardado en : Drama

Películas relacionadas

  • Paradise Highway (2022) HD 1080p Latino

    Paradise Highway (2022) HD 1080p Latino

    2022
    Paradise Highway (2022) HD 1080p Latino

    1h 55m 2022

    Descargar Paradise Highway (2022) HD 1080p Latino. Un camionero se ha visto obligado a pasar de contrabando...

    Director: Anna Gutto

    Género: Crimen

    Actores: Xavier Scott Evans

  • Paradise Highway (2022) PLACEBO Full HD 1080p Latino

    Paradise Highway (2022) PLACEBO Full HD 1080p Latino

    2022
    Paradise Highway (2022) PLACEBO Full HD 1080p Latino

    1h 55m 2022

    Descargar Paradise Highway (2022) PLACEBO Full HD 1080p Latino. Un camionero se ha visto obligado a pasar...

    Director: Anna Gutto

    Género: Crimen

    Actores: Xavier Scott Evans

  • Paradise Highway (2022) REMUX 1080p Latino

    Paradise Highway (2022) REMUX 1080p Latino

    2022
    Paradise Highway (2022) REMUX 1080p Latino

    1h 55m 2022

    Descargar Paradise Highway (2022) REMUX 1080p Latino. Un camionero se ha visto obligado a pasar de contrabando...

    Director: Anna Gutto

    Género: Crimen

    Actores: Xavier Scott Evans

  • Narvik (2022) NF WEB-DL 1080p Latino

    Narvik (2022) NF WEB-DL 1080p Latino

    2022
    Narvik (2022) NF WEB-DL 1080p Latino

    1h 48m 2022

    Descargar Narvik (2022) NF WEB-DL 1080p Latino. Abril de 1940. Los ojos del mundo están puestos en Narvik,...

    Director: Suzanne Svae-Johansen

    Género: Acción

    Actores: Torfinn Nag

descargar True Detective (2015) Segunda Temporada REMUX 1080p latino – CMHDD 1080p gratis, True Detective (2015) Segunda Temporada REMUX 1080p latino – CMHDD mega 1 link, True Detective (2015) Segunda Temporada REMUX 1080p latino – CMHDD pelicula completa, descargar True Detective (2015) Segunda Temporada REMUX 1080p latino – CMHDD gratis en mega.

True Detective (2015) Segunda Temporada REMUX 1080p latino – CMHDD pelicula full hd, True Detective (2015) Segunda Temporada REMUX 1080p latino – CMHDD mega latino, True Detective (2015) Segunda Temporada REMUX 1080p latino – CMHDD 4k latino, True Detective (2015) Segunda Temporada REMUX 1080p latino – CMHDD pelicula completa, True Detective (2015) Segunda Temporada REMUX 1080p latino – CMHDD descargar gratis, descargar True Detective (2015) Segunda Temporada REMUX 1080p latino – CMHDD pelicula latino, True Detective (2015) Segunda Temporada REMUX 1080p latino – CMHDD 1 link mega, True Detective (2015) Segunda Temporada REMUX 1080p latino – CMHDD 1 link google drive, True Detective (2015) Segunda Temporada REMUX 1080p latino – CMHDD hd 1080p latino.
Comentarios 0