×

¿Problemas para descargar con Mozilla, EDGE? Deshabilita la opción "Abrir vinculos en una pestaña nueva" tal como lo muestra ésta imagen.

Troy Director’s Cut (2004) [Upscale] 4K SDR Latino – CMHDD

149 vistas

Información de Troy Director’s Cut (2004) [Upscale] 4K SDR Latino – CMHDD

Datos de la película

  • Calidad: 4K UHD
  • Audio: Español Latino AC3 5.1 BLURAY - Ingles DTS 5.1 BLURAY
  • Subtitulos: No
  • Resolución: 3840x2160p
  • Formato: MKV
  • Codec: H.264
  • Encoder: Dracarys
  • Mediainfo: Clic para Mostrar Datos Ver
  • Format                      : Matroska
    Format version              : Version 4
    File size                   : 90.0 GiB
    Duration                    : 3 h 16 min
    Overall bit rate mode       : Variable
    Overall bit rate            : 65.7 Mb/s
    Movie name                  : Troy: Director’s Cut (2004) [Upscale] 4K SDR Latino - CMHDD
    Encoded date                : UTC 2023-10-23 03:06:45
    Writing application         : mkvmerge v47.0.0 ('Black Flag') 64-bit
    Writing library             : libebml v1.3.10 + libmatroska v1.5.2

    Video
    ID                          : 1
    Format                      : HEVC
    Format/Info                 : High Efficiency Video Coding
    Format profile              : Main@L5.2@Main
    Codec ID                    : V_MPEGH/ISO/HEVC
    Duration                    : 3 h 16 min
    Bit rate                    : 61.5 Mb/s
    Width                       : 3 840 pixels
    Height                      : 2 160 pixels
    Display aspect ratio        : 16:9
    Frame rate mode             : Constant
    Frame rate                  : 23.976 (24000/1001) FPS
    Color space                 : YUV
    Chroma subsampling          : 4:2:0
    Bit depth                   : 8 bits
    Bits/(Pixel*Frame)          : 0.309
    Stream size                 : 84.3 GiB (94%)
    Language                    : English
    Default                     : Yes
    Forced                      : No

    Audio #1
    ID                          : 2
    Format                      : DTS XLL
    Format/Info                 : Digital Theater Systems
    Commercial name             : DTS-HD Master Audio
    Codec ID                    : A_DTS
    Duration                    : 3 h 16 min
    Bit rate mode               : Variable
    Bit rate                    : 2 255 kb/s
    Channel(s)                  : 6 channels
    Channel layout              : C L R Ls Rs LFE
    Sampling rate               : 48.0 kHz
    Frame rate                  : 93.750 FPS (512 SPF)
    Bit depth                   : 16 bits
    Compression mode            : Lossless
    Stream size                 : 3.09 GiB (3%)
    Language                    : English
    Default                     : No
    Forced                      : No

    Audio #2
    ID                          : 3
    Format                      : E-AC-3
    Format/Info                 : Enhanced AC-3
    Commercial name             : Dolby Digital Plus
    Codec ID                    : A_EAC3
    Duration                    : 3 h 16 min
    Bit rate mode               : Constant
    Bit rate                    : 960 kb/s
    Channel(s)                  : 6 channels
    Channel layout              : L R C LFE Ls Rs
    Sampling rate               : 48.0 kHz
    Frame rate                  : 31.250 FPS (1536 SPF)
    Compression mode            : Lossy
    Stream size                 : 1.31 GiB (1%)
    Language                    : English
    Service kind                : Complete Main
    Default                     : No
    Forced                      : No

    Audio #3
    ID                          : 4
    Format                      : E-AC-3
    Format/Info                 : Enhanced AC-3
    Commercial name             : Dolby Digital Plus
    Codec ID                    : A_EAC3
    Duration                    : 3 h 16 min
    Bit rate mode               : Constant
    Bit rate                    : 960 kb/s
    Channel(s)                  : 6 channels
    Channel layout              : L R C LFE Ls Rs
    Sampling rate               : 48.0 kHz
    Frame rate                  : 31.250 FPS (1536 SPF)
    Compression mode            : Lossy
    Stream size                 : 1.31 GiB (1%)
    Language                    : Spanish
    Service kind                : Complete Main
    Default                     : Yes
    Forced                      : No

    Text
    ID                          : 5
    Format                      : PGS
    Muxing mode                 : zlib
    Codec ID                    : S_HDMV/PGS
    Codec ID/Info               : Picture based subtitle format used on BDs/HD-DVDs
    Duration                    : 3 h 15 min
    Bit rate                    : 18.5 kb/s
    Frame rate                  : 0.238 FPS
    Count of elements           : 2794
    Stream size                 : 25.9 MiB (0%)
    Language                    : Spanish
    Default                     : No
    Forced                      : No

    Menu
    00:00:00.000                : Глава 01
    00:03:00.000                : Глава 02
    00:06:00.000                : Глава 03
    00:09:00.000                : Глава 04
    00:12:00.000                : Глава 05
    00:15:00.000                : Глава 06
    00:18:00.000                : Глава 07
    00:21:00.000                : Глава 08
    00:24:00.000                : Глава 09
    00:27:00.000                : Глава 10
    00:30:00.000                : Глава 11
    00:33:00.000                : Глава 12
    00:36:00.000                : Глава 13
    00:39:00.000                : Глава 14
    00:42:00.000                : Глава 15
    00:45:00.000                : Глава 16
    00:48:00.000                : Глава 17
    00:51:00.000                : Глава 18
    00:54:00.000                : Глава 19
    00:57:00.000                : Глава 20
    01:00:00.000                : Глава 21
    01:03:00.000                : Глава 22
    01:06:00.000                : Глава 23
    01:09:00.000                : Глава 24
    01:12:00.000                : Глава 25
    01:15:00.000                : Глава 26
    01:18:00.000                : Глава 27
    01:21:00.000                : Глава 28
    01:24:00.000                : Глава 29
    01:27:00.000                : Глава 30
    01:30:00.000                : Глава 31
    01:33:00.000                : Глава 32
    01:36:00.000                : Глава 33
    01:39:00.000                : Глава 34
    01:42:00.000                : Глава 35
    01:45:00.000                : Глава 36
    01:48:00.000                : Глава 37
    01:51:00.000                : Глава 38
    01:54:00.000                : Глава 39
    01:57:00.000                : Глава 40
    02:00:00.000                : Глава 41
    02:03:00.000                : Глава 42
    02:06:00.000                : Глава 43
    02:09:00.000                : Глава 44
    02:12:00.000                : Глава 45
    02:15:00.000                : Глава 46
    02:18:00.000                : Глава 47
    02:21:00.000                : Глава 48
    02:24:00.000                : Глава 49
    02:27:00.000                : Глава 50
    02:30:00.000                : Глава 51
    02:33:00.000                : Глава 52
    02:36:00.000                : Глава 53
    02:39:00.000                : Глава 54
    02:42:00.000                : Глава 55
    02:45:00.000                : Глава 56
    02:48:00.000                : Глава 57
    02:51:00.000                : Глава 58
    02:54:00.000                : Глава 59
    02:57:00.000                : Глава 60
    03:00:00.000                : Глава 61
    03:03:00.000                : Глава 62
    03:06:00.000                : Глава 63
    03:09:00.000                : Глава 64
    03:12:00.000                : Глава 65
    03:15:00.000                : Глава 66

     

  • Peso: 90.0 GiB

Sinopsis

A lo largo de los tiempos, los hombres han hecho la guerra. Unos por poder, otros por gloria o por honor, y algunos por amor. En la antigua Grecia, la pasión de dos de los amantes más legendarios de la historia, Paris, príncipe de Troya (Orlando Bloom) y Helena (Diane Kruger), reina de Esparta, desencadena una guerra que asolará una civilización. El rapto de Helena por Paris, separándola de su esposo, el rey Menelao (Bren-dan Gleeson), es un insulto que El orgullo familiar establece que una afrenta a Menelao es una afrenta a su hermano Agamenón (Brian Cox), el poderoso rey de Micenas, que no tarda en reunir a todas las grandes tribus de Grecia para recuperar a Helena de manos de los troyanos y defender el honor de su hermano. La verdad es que la lucha por el honor por parte de Agamenón está corrompida por su incontenible codicia ya que necesita conquistar Troya para asumir el control del mar Egeo.

Ficha técnica

Video trailer de la película

Enlaces de descarga

Rip de Bluray

Descargar Troy Director’s Cut (2004) [Upscale] 4K SDR Latino – CMHDD


Aportes de DPeliculasHDmega la pass es:dpeliculashdmega.org Aportes de CinemaniaHD la pass es:cinemaniahdd.com Aportes recientes:cinemaniahdd.net
Guardado en : Acción , Aventura , Bélica , Historia

Películas relacionadas

descargar Troy Director’s Cut (2004) [Upscale] 4K SDR Latino – CMHDD 4K UHD 1080p gratis, Troy Director’s Cut (2004) [Upscale] 4K SDR Latino – CMHDD 4K UHD mega 1 link, Troy Director’s Cut (2004) [Upscale] 4K SDR Latino – CMHDD 4K UHD pelicula completa, descargar Troy Director’s Cut (2004) [Upscale] 4K SDR Latino – CMHDD 4K UHD gratis en mega.

Troy Director’s Cut (2004) [Upscale] 4K SDR Latino – CMHDD pelicula full hd, Troy Director’s Cut (2004) [Upscale] 4K SDR Latino – CMHDD mega latino, Troy Director’s Cut (2004) [Upscale] 4K SDR Latino – CMHDD 4k latino, Troy Director’s Cut (2004) [Upscale] 4K SDR Latino – CMHDD pelicula completa, Troy Director’s Cut (2004) [Upscale] 4K SDR Latino – CMHDD descargar gratis, descargar Troy Director’s Cut (2004) [Upscale] 4K SDR Latino – CMHDD pelicula latino, Troy Director’s Cut (2004) [Upscale] 4K SDR Latino – CMHDD 1 link mega, Troy Director’s Cut (2004) [Upscale] 4K SDR Latino – CMHDD 1 link google drive, Troy Director’s Cut (2004) [Upscale] 4K SDR Latino – CMHDD hd 1080p latino.
Comentarios 0