×

¿Problemas para descargar con Mozilla, EDGE? Deshabilita la opción "Abrir vinculos en una pestaña nueva" tal como lo muestra ésta imagen.

Troop Zero (2020) AMZN WEB-DL 1080p Latino

876 vistas

Información de Troop Zero (2020) AMZN WEB-DL 1080p Latino

Datos de la película

  • Calidad:
  • Audio: Español Latino E-AC3 5.1 AMAZON - Ingles E-AC3 5.1 AMAZON
  • Subtitulos: Español Latino SRT- FORZADOS SRT
  • Resolución: 1920x800
  • Formato: MKV
  • Codec: H.264
  • Encoder: cinemaniahdd
  • Mediainfo: Clic para Mostrar Datos Ver
  • Troop Zero (2020) AMZN WEB-DL 1080p Latino.mkv
    Format                      : Matroska
    Format version              : Version 4
    File size                   : 6.50 GiB
    Duration                    : 1 h 37 min
    Overall bit rate            : 9 550 kb/s
    Movie name                  : Troop Zero (2020) - CinemaniaHDD.Net
    Encoded date                : UTC 2020-01-16 19:39:02
    Writing application         : mkvmerge v38.0.0 ('The Silent Type') 64-bit
    Writing library             : libebml v1.3.9 + libmatroska v1.5.2

    Video
    ID                          : 1
    Format                      : AVC
    Format/Info                 : Advanced Video Codec
    Format profile              : High@L4
    Format settings             : CABAC / 4 Ref Frames
    Format settings, CABAC      : Yes
    Format settings, ReFrames   : 4 frames
    Codec ID                    : V_MPEG4/ISO/AVC
    Duration                    : 1 h 37 min
    Bit rate mode               : Constant
    Bit rate                    : 8 267 kb/s
    Nominal bit rate            : 10 000 kb/s
    Width                       : 1 920 pixels
    Height                      : 800 pixels
    Display aspect ratio        : 2.40:1
    Frame rate mode             : Constant
    Frame rate                  : 23.976 (24000/1001) FPS
    Color space                 : YUV
    Chroma subsampling          : 4:2:0
    Bit depth                   : 8 bits
    Scan type                   : Progressive
    Bits/(Pixel*Frame)          : 0.224
    Stream size                 : 5.63 GiB (87%)
    Title                       : CinemaniaHDD
    Default                     : Yes
    Forced                      : No
    Color range                 : Limited
    Color primaries             : BT.709
    Transfer characteristics    : BT.709
    Matrix coefficients         : BT.709

    Audio #1
    ID                          : 2
    Format                      : E-AC-3
    Format/Info                 : Enhanced AC-3
    Commercial name             : Dolby Digital Plus
    Codec ID                    : A_EAC3
    Duration                    : 1 h 37 min
    Bit rate mode               : Constant
    Bit rate                    : 640 kb/s
    Channel(s)                  : 6 channels
    Channel layout              : L R C LFE Ls Rs
    Sampling rate               : 48.0 kHz
    Frame rate                  : 31.250 FPS (1536 SPF)
    Compression mode            : Lossy
    Stream size                 : 446 MiB (7%)
    Title                       : Español latino [CinemaniaHDD]
    Language                    : Spanish
    Service kind                : Complete Main
    Default                     : Yes
    Forced                      : Yes

    Audio #2
    ID                          : 3
    Format                      : E-AC-3
    Format/Info                 : Enhanced AC-3
    Commercial name             : Dolby Digital Plus
    Codec ID                    : A_EAC3
    Duration                    : 1 h 37 min
    Bit rate mode               : Constant
    Bit rate                    : 640 kb/s
    Channel(s)                  : 6 channels
    Channel layout              : L R C LFE Ls Rs
    Sampling rate               : 48.0 kHz
    Frame rate                  : 31.250 FPS (1536 SPF)
    Compression mode            : Lossy
    Stream size                 : 446 MiB (7%)
    Title                       : Inglés [CinemaniaHDD]
    Language                    : English
    Service kind                : Complete Main
    Default                     : No
    Forced                      : No

    Text #1
    ID                          : 4
    Format                      : UTF-8
    Codec ID                    : S_TEXT/UTF8
    Codec ID/Info               : UTF-8 Plain Text
    Duration                    : 1 h 30 min
    Bit rate                    : 0 b/s
    Count of elements           : 18
    Stream size                 : 539 Bytes (0%)
    Title                       : Forzados [CinemaniaHDD]
    Language                    : Spanish
    Default                     : Yes
    Forced                      : Yes

    Text #2
    ID                          : 5
    Format                      : UTF-8
    Codec ID                    : S_TEXT/UTF8
    Codec ID/Info               : UTF-8 Plain Text
    Duration                    : 1 h 32 min
    Bit rate                    : 58 b/s
    Count of elements           : 1279
    Stream size                 : 39.5 KiB (0%)
    Title                       : Español latino [CinemaniaHDD]
    Language                    : Spanish
    Default                     : No
    Forced                      : No

     

  • Peso: 6.50 GiB

Sinopsis

En la zona rural de 1977, Georgia, una niña inadaptada sueña con la vida en el espacio ultraterrestre. Cuando una competencia nacional le ofrece la oportunidad de su sueño, que se grabará en el Golden Record de la NASA, recluta a una compañía improvisada de Birdie Scouts, forjando amistades que duran toda la vida y más allá.

Ficha técnica

  • Titulo original: Troop Zero
  • Fecha de lanzamiento: 01-02-2019 (United States of America)
  • Director: Bert, Bertie
  • Género: Comedia, Drama, Familia

Video trailer de la película

Enlaces de descarga

Rip de Bluray

Descargar Troop Zero (2020) AMZN WEB-DL 1080p Latino




Aportes de DPeliculasHDmega la pass es:dpeliculashdmega.org Aportes de CinemaniaHD la pass es:cinemaniahdd.com
Guardado en : Comedia , Drama , Familia

Películas relacionadas

descargar Troop Zero (2020) AMZN WEB-DL 1080p Latino 1080p gratis, Troop Zero (2020) AMZN WEB-DL 1080p Latino mega 1 link, Troop Zero (2020) AMZN WEB-DL 1080p Latino pelicula completa, descargar Troop Zero (2020) AMZN WEB-DL 1080p Latino gratis en mega.

Troop Zero (2020) AMZN WEB-DL 1080p Latino pelicula full hd, Troop Zero (2020) AMZN WEB-DL 1080p Latino mega latino, Troop Zero (2020) AMZN WEB-DL 1080p Latino 4k latino, Troop Zero (2020) AMZN WEB-DL 1080p Latino pelicula completa, Troop Zero (2020) AMZN WEB-DL 1080p Latino descargar gratis, descargar Troop Zero (2020) AMZN WEB-DL 1080p Latino pelicula latino, Troop Zero (2020) AMZN WEB-DL 1080p Latino 1 link mega, Troop Zero (2020) AMZN WEB-DL 1080p Latino 1 link google drive, Troop Zero (2020) AMZN WEB-DL 1080p Latino hd 1080p latino.
Comentarios 0