×

¿Problemas para descargar con Mozilla, EDGE? Deshabilita la opción "Abrir vinculos en una pestaña nueva" tal como lo muestra ésta imagen.

Tron Legacy (2010) REMUX 4K HDR [IMAX] Latino – CMHDD

13 vistas

Información de Tron Legacy (2010) REMUX 4K HDR [IMAX] Latino – CMHDD

Datos de la película

  • Calidad: 4K HDR
  • Audio: Español Latino AC3 5.1 BLURAY - Ingles DTS-HD Master 7.1 BLURAY
  • Subtitulos: Español Latino SRT
  • Resolución: 3840x2160p
  • Formato:
  • Codec: H.264
  • Encoder: Dracarys
  • Mediainfo: Clic para Mostrar Datos Ver
  • Format                      : Matroska
    Format version              : Version 4
    File size                   : 63.0 GiB
    Duration                    : 2 h 5 min
    Overall bit rate mode       : Variable
    Overall bit rate            : 72.1 Mb/s
    Movie name                  : Tron: Legacy (2010) REMUX 4K HDR Open Matte Latino - CMHDD
    Encoded date                : UTC 2024-07-07 17:37:59
    Writing application         : mkvmerge v47.0.0 ('Black Flag') 64-bit
    Writing library             : libebml v1.3.10 + libmatroska v1.5.2

    Video
    ID                          : 1
    Format                      : HEVC
    Format/Info                 : High Efficiency Video Coding
    Format profile              : Main 10@L5.1@High
    HDR format                  : SMPTE ST 2086, HDR10 compatible
    Codec ID                    : V_MPEGH/ISO/HEVC
    Duration                    : 2 h 5 min
    Bit rate                    : 67.7 Mb/s
    Width                       : 3 840 pixels
    Height                      : 2 160 pixels
    Display aspect ratio        : 16:9
    Frame rate mode             : Constant
    Frame rate                  : 23.976 (24000/1001) FPS
    Color space                 : YUV
    Chroma subsampling          : 4:2:0 (Type 2)
    Bit depth                   : 10 bits
    Bits/(Pixel*Frame)          : 0.340
    Stream size                 : 59.2 GiB (94%)
    Writing library             : 4K-HDR.by.BLKFLX
    Default                     : Yes
    Forced                      : No
    Color range                 : Limited
    Color primaries             : BT.2020
    Transfer characteristics    : PQ
    Matrix coefficients         : BT.2020 non-constant
    Mastering display color pri : Display P3
    Mastering display luminance : min: 0.0001 cd/m2, max: 1000 cd/m2
    Maximum Content Light Level : 798 cd/m2
    Maximum Frame-Average Light : 257 cd/m2

    Audio #1
    ID                          : 2
    Format                      : DTS XLL
    Format/Info                 : Digital Theater Systems
    Commercial name             : DTS-HD Master Audio
    Codec ID                    : A_DTS
    Duration                    : 2 h 5 min
    Bit rate mode               : Variable
    Bit rate                    : 3 328 kb/s
    Channel(s)                  : 8 channels
    Channel layout              : C L R LFE Lb Rb Lss Rss
    Sampling rate               : 48.0 kHz
    Frame rate                  : 93.750 FPS (512 SPF)
    Bit depth                   : 16 bits
    Compression mode            : Lossless
    Stream size                 : 2.91 GiB (5%)
    Language                    : English
    Default                     : No
    Forced                      : No

    Audio #2
    ID                          : 3
    Format                      : AC-3
    Format/Info                 : Audio Coding 3
    Commercial name             : Dolby Digital
    Codec ID                    : A_AC3
    Duration                    : 2 h 5 min
    Bit rate mode               : Constant
    Bit rate                    : 640 kb/s
    Channel(s)                  : 6 channels
    Channel layout              : L R C LFE Ls Rs
    Sampling rate               : 48.0 kHz
    Frame rate                  : 31.250 FPS (1536 SPF)
    Compression mode            : Lossy
    Stream size                 : 573 MiB (1%)
    Language                    : English
    Service kind                : Complete Main
    Default                     : No
    Forced                      : No

    Audio #3
    ID                          : 4
    Format                      : AC-3
    Format/Info                 : Audio Coding 3
    Commercial name             : Dolby Digital
    Codec ID                    : A_AC3
    Duration                    : 2 h 5 min
    Bit rate mode               : Constant
    Bit rate                    : 448 kb/s
    Channel(s)                  : 6 channels
    Channel layout              : L R C LFE Ls Rs
    Sampling rate               : 48.0 kHz
    Frame rate                  : 31.250 FPS (1536 SPF)
    Compression mode            : Lossy
    Stream size                 : 401 MiB (1%)
    Language                    : Spanish
    Service kind                : Complete Main
    Default                     : Yes
    Forced                      : Yes

    Text
    ID                          : 5
    Format                      : VobSub
    Muxing mode                 : zlib
    Codec ID                    : S_VOBSUB
    Codec ID/Info               : Picture based subtitle format used on DVDs
    Duration                    : 2 h 4 min
    Bit rate                    : 6 153 b/s
    Count of elements           : 1218
    Stream size                 : 5.48 MiB (0%)
    Language                    : English
    Default                     : No
    Forced                      : No

    Menu #1
    00:00:00.000                : en:The Same Team
    00:04:07.163                : en:All Grown Up
    00:14:44.174                : en:A Visit From a Friend
    00:23:15.602                : en:The Grid
    00:26:52.694                : en:Games
    00:36:12.211                : en:Not Your Father
    00:38:35.980                : en:Lightcycle Battle
    00:46:52.726                : en:The Real Kevin Flynn
    00:53:03.763                : en:Father's Wisdom
    01:04:54.181                : en:Castor
    01:13:47.423                : en:Zuse
    01:19:00.944                : en:She's An ISO
    01:22:40.455                : en:Catching Up
    01:25:50.895                : en:A Deal
    01:28:11.828                : en:A Rescue
    01:31:42.413                : en:Building an Army
    01:43:13.061                : en:Air Battle
    01:48:18.033                : en:Flynn's Sacrifice
    01:54:48.381                : en:You Were Right
    01:58:03.659                : en:End Credits

  • Peso: 63.0 GiB

Sinopsis

Cuando Sam Flynn (Garrett Hedlund), programador experto en tecnología de 27 años e hijo de Kevin Flynn (Jeff Bridges), investiga la desaparición de su padre, se encuentra de repente inmerso en un peligroso y salvaje mundo surreal donde existen feroces luchas a muerte, un lugar paralelo donde su padre ha estado viviendo durante 25 años. Con la ayuda de una joven (Olivia Wilde), padre e hijo se embarcarán en un viaje a vida o muerte a través de un universo cibernético, que con el tiempo se ha convertido en mucho más avanzado y peligroso… Secuela del clásico de culto de 1982.

Ficha técnica

Video trailer de la película

Enlaces de descarga

Rip de Bluray

Descargar Tron Legacy (2010) REMUX 4K HDR [IMAX] Latino – CMHDD




Aportes de DPeliculasHDmega la pass es:dpeliculashdmega.org Aportes de CinemaniaHD la pass es:cinemaniahdd.com Aportes recientes:cinemaniahdd.net
Guardado en : Acción , Aventura , Ciencia ficción

Películas relacionadas

descargar Tron Legacy (2010) REMUX 4K HDR [IMAX] Latino – CMHDD 4K HDR 1080p gratis, Tron Legacy (2010) REMUX 4K HDR [IMAX] Latino – CMHDD 4K HDR mega 1 link, Tron Legacy (2010) REMUX 4K HDR [IMAX] Latino – CMHDD 4K HDR pelicula completa, descargar Tron Legacy (2010) REMUX 4K HDR [IMAX] Latino – CMHDD 4K HDR gratis en mega.

Tron Legacy (2010) REMUX 4K HDR [IMAX] Latino – CMHDD pelicula full hd, Tron Legacy (2010) REMUX 4K HDR [IMAX] Latino – CMHDD mega latino, Tron Legacy (2010) REMUX 4K HDR [IMAX] Latino – CMHDD 4k latino, Tron Legacy (2010) REMUX 4K HDR [IMAX] Latino – CMHDD pelicula completa, Tron Legacy (2010) REMUX 4K HDR [IMAX] Latino – CMHDD descargar gratis, descargar Tron Legacy (2010) REMUX 4K HDR [IMAX] Latino – CMHDD pelicula latino, Tron Legacy (2010) REMUX 4K HDR [IMAX] Latino – CMHDD 1 link mega, Tron Legacy (2010) REMUX 4K HDR [IMAX] Latino – CMHDD 1 link google drive, Tron Legacy (2010) REMUX 4K HDR [IMAX] Latino – CMHDD hd 1080p latino.
Comentarios 0