×

¿Problemas para descargar con Mozilla, EDGE? Deshabilita la opción "Abrir vinculos en una pestaña nueva" tal como lo muestra ésta imagen.

Tron Legacy (2010) [IMAX] REMUX 1080p Latino – CMHDD

1.056 vistas

Información de Tron Legacy (2010) [IMAX] REMUX 1080p Latino – CMHDD

Datos de la película

  • Calidad: Full 1080p
  • Audio: Español Latino AC3 5.1 BLURAY - Ingles DTS-HD Master 7.1 BLURAY
  • Subtitulos: Español Latino PGS
  • Resolución: 1920x1080p
  • Formato: MKV
  • Codec: H.264
  • Encoder: Dracarys
  • Mediainfo: Clic para Mostrar Datos Ver
  • Format                      : Matroska
    Format version              : Version 4
    File size                   : 26.8 GiB
    Duration                    : 2 h 5 min
    Overall bit rate mode       : Variable
    Overall bit rate            : 30.6 Mb/s
    Movie name                  : Tron Legacy (2010) REMUX 1080p Latino - CMHDD
    Encoded date                : UTC 2022-01-15 04:56:41
    Writing application         : mkvmerge v17.0.0 ('Be Ur Friend') 64-bit
    Writing library             : libebml v1.3.5 + libmatroska v1.4.8

    Video
    ID                          : 1
    Format                      : AVC
    Format/Info                 : Advanced Video Codec
    Format profile              : High@L4.1
    Format settings             : CABAC / 4 Ref Frames
    Format settings, CABAC      : Yes
    Format settings, Reference  : 4 frames
    Format settings, GOP        : M=1, N=12
    Codec ID                    : V_MPEG4/ISO/AVC
    Duration                    : 2 h 5 min
    Bit rate mode               : Variable
    Bit rate                    : 24.3 Mb/s
    Maximum bit rate            : 31.0 Mb/s
    Width                       : 1 920 pixels
    Height                      : 1 080 pixels
    Display aspect ratio        : 16:9
    Frame rate mode             : Constant
    Frame rate                  : 23.976 (24000/1001) FPS
    Color space                 : YUV
    Chroma subsampling          : 4:2:0
    Bit depth                   : 8 bits
    Scan type                   : Progressive
    Bits/(Pixel*Frame)          : 0.488
    Stream size                 : 21.2 GiB (79%)
    Default                     : Yes
    Forced                      : No

    Audio #1
    ID                          : 2
    Format                      : DTS XLL
    Format/Info                 : Digital Theater Systems
    Commercial name             : DTS-HD Master Audio
    Codec ID                    : A_DTS
    Duration                    : 2 h 5 min
    Bit rate mode               : Variable
    Bit rate                    : 5 731 kb/s
    Channel(s)                  : 8 channels
    Channel layout              : C L R LFE Lb Rb Lss Rss
    Sampling rate               : 48.0 kHz
    Frame rate                  : 93.750 FPS (512 SPF)
    Bit depth                   : 24 bits
    Compression mode            : Lossless
    Stream size                 : 5.01 GiB (19%)
    Language                    : English
    Default                     : No
    Forced                      : No

    Audio #2
    ID                          : 3
    Format                      : AC-3
    Format/Info                 : Audio Coding 3
    Commercial name             : Dolby Digital
    Codec ID                    : A_AC3
    Duration                    : 2 h 5 min
    Bit rate mode               : Constant
    Bit rate                    : 640 kb/s
    Channel(s)                  : 6 channels
    Channel layout              : L R C LFE Ls Rs
    Sampling rate               : 48.0 kHz
    Frame rate                  : 31.250 FPS (1536 SPF)
    Compression mode            : Lossy
    Stream size                 : 573 MiB (2%)
    Language                    : Spanish
    Service kind                : Complete Main
    Default                     : Yes
    Forced                      : No

    Text #1
    ID                          : 4
    Format                      : PGS
    Muxing mode                 : zlib
    Codec ID                    : S_HDMV/PGS
    Codec ID/Info               : Picture based subtitle format used on BDs/HD-DVDs
    Duration                    : 1 h 59 min
    Bit rate                    : 21.2 kb/s
    Count of elements           : 1934
    Stream size                 : 18.1 MiB (0%)
    Language                    : Spanish
    Default                     : No
    Forced                      : No

    Text #2
    ID                          : 5
    Format                      : PGS
    Muxing mode                 : zlib
    Codec ID                    : S_HDMV/PGS
    Codec ID/Info               : Picture based subtitle format used on BDs/HD-DVDs
    Duration                    : 1 h 57 min
    Bit rate                    : 60 b/s
    Count of elements           : 10
    Stream size                 : 51.8 KiB (0%)
    Language                    : Spanish
    Default                     : No
    Forced                      : No

    Menu
    00:00:00.000                : en:Chapter 1
    00:04:07.163                : en:Chapter 2
    00:14:44.133                : en:Chapter 3
    00:23:15.602                : en:Chapter 4
    00:26:52.694                : en:Chapter 5
    00:36:12.210                : en:Chapter 6
    00:38:35.980                : en:Chapter 7
    00:46:52.726                : en:Chapter 8
    00:53:03.763                : en:Chapter 9
    01:04:54.181                : en:Chapter 10
    01:13:47.421                : en:Chapter 11
    01:19:00.944                : en:Chapter 12
    01:22:40.455                : en:Chapter 13
    01:25:50.895                : en:Chapter 14
    01:28:11.828                : en:Chapter 15
    01:31:42.412                : en:Chapter 16
    01:43:13.061                : en:Chapter 17
    01:48:18.033                : en:Chapter 18
    01:54:48.381                : en:Chapter 19
    01:58:03.659                : en:Chapter 20

  • Peso: 26.8 GiB

Sinopsis

Cuando Sam Flynn (Garrett Hedlund), programador experto en tecnología de 27 años e hijo de Kevin Flynn (Jeff Bridges), investiga la desaparición de su padre, se encuentra de repente inmerso en un peligroso y salvaje mundo surreal donde existen feroces luchas a muerte, un lugar paralelo donde su padre ha estado viviendo durante 25 años. Con la ayuda de una joven (Olivia Wilde), padre e hijo se embarcarán en un viaje a vida o muerte a través de un universo cibernético, que con el tiempo se ha convertido en mucho más avanzado y peligroso… Secuela del clásico de culto de 1982.

Ficha técnica

Video trailer de la película

Enlaces de descarga

Rip de Bluray

Descargar Tron Legacy (2010) [IMAX] REMUX 1080p Latino – CMHDD


Aportes de DPeliculasHDmega la pass es:dpeliculashdmega.org Aportes de CinemaniaHD la pass es:cinemaniahdd.com Aportes recientes:cinemaniahdd.net
Guardado en : Acción , Aventura , Ciencia ficción

Películas relacionadas

descargar Tron Legacy (2010) [IMAX] REMUX 1080p Latino – CMHDD Full 1080p 1080p gratis, Tron Legacy (2010) [IMAX] REMUX 1080p Latino – CMHDD Full 1080p mega 1 link, Tron Legacy (2010) [IMAX] REMUX 1080p Latino – CMHDD Full 1080p pelicula completa, descargar Tron Legacy (2010) [IMAX] REMUX 1080p Latino – CMHDD Full 1080p gratis en mega.

Tron Legacy (2010) [IMAX] REMUX 1080p Latino – CMHDD pelicula full hd, Tron Legacy (2010) [IMAX] REMUX 1080p Latino – CMHDD mega latino, Tron Legacy (2010) [IMAX] REMUX 1080p Latino – CMHDD 4k latino, Tron Legacy (2010) [IMAX] REMUX 1080p Latino – CMHDD pelicula completa, Tron Legacy (2010) [IMAX] REMUX 1080p Latino – CMHDD descargar gratis, descargar Tron Legacy (2010) [IMAX] REMUX 1080p Latino – CMHDD pelicula latino, Tron Legacy (2010) [IMAX] REMUX 1080p Latino – CMHDD 1 link mega, Tron Legacy (2010) [IMAX] REMUX 1080p Latino – CMHDD 1 link google drive, Tron Legacy (2010) [IMAX] REMUX 1080p Latino – CMHDD hd 1080p latino.
Comentarios 0