Trolls 2: Gira mundial (2020) 4K UHD HDR Latino

204 vistas
1 estrella2 estrellas3 estrellas4 estrellas5 estrellas (Ninguna valoración todavía)
Cargando...

Información de Trolls 2: Gira mundial (2020) 4K UHD HDR Latino

Datos de la película

  • Calidad: 4K HDR
  • Audio: Se especifica abajo de la Sinopsis
  • Subtitulos: Español Latino PGS - Ingles PGS
  • Resolución: 3840x1634p
  • Formato: MKV
  • Codec: HEVC
  • Encoder: CinefiloCool
  • Mediainfo: Clic para Mostrar Datos Ver
  • Trolls 2 Gira mundial (2020) UHD HDR Latino-CMHDD.mkv
    Format                      : Matroska
    Format version              : Version 4
    File size                   : 10.1 GiB
    Duration                    : 1 h 30 min
    Overall bit rate mode       : Variable
    Overall bit rate            : 15.9 Mb/s
    Movie name                  : Trolls World Tour (2020) CinemaniaHDD.Net
    Encoded date                : UTC 2020-07-05 02:12:33
    Writing application         : mkvmerge v46.0.0 ('No Deeper Escape') 64-bit
    Writing library             : libebml v1.3.10 + libmatroska v1.5.2
    Attachments                 : CINEMANIAHD.png

    Video
    ID                          : 1
    Format                      : HEVC
    Format/Info                 : High Efficiency Video Coding
    Format profile              : Main 10@L5.1@High
    HDR format                  : SMPTE ST 2086, HDR10 compatible
    Codec ID                    : V_MPEGH/ISO/HEVC
    Duration                    : 1 h 30 min
    Bit rate                    : 10.3 Mb/s
    Width                       : 3 840 pixels
    Height                      : 1 634 pixels
    Display aspect ratio        : 2.35:1
    Frame rate mode             : Constant
    Frame rate                  : 23.976 (24000/1001) FPS
    Color space                 : YUV
    Chroma subsampling          : 4:2:0 (Type 2)
    Bit depth                   : 10 bits
    Bits/(Pixel*Frame)          : 0.069
    Stream size                 : 6.54 GiB (65%)
    Title                       : 2160p HDR [Bluray]
    Writing library             : x265 3.0_Au+10-74a8672ea4f7:[Windows][GCC 8.2.1][64 bit] 10bit
    Encoding settings           : cpuid=1111039 / frame-threads=6 / numa-pools=24,24,24,24 / wpp / no-pmode / no-pme / no-psnr / no-ssim / log-level=2 / input-csp=1 / input-res=3840x1634 / interlace=0 / total-frames=0 / level-idc=51 / high-tier=1 / uhd-bd=0 / ref=3 / no-allow-non-conformance / repeat-headers / annexb / aud / hrd / info / hash=0 / no-temporal-layers / no-open-gop / min-keyint=1 / keyint=24 / gop-lookahead=0 / bframes=6 / b-adapt=2 / b-pyramid / bframe-bias=0 / rc-lookahead=25 / lookahead-slices=4 / scenecut=40 / radl=0 / no-splice / no-intra-refresh / ctu=64 / min-cu-size=8 / no-rect / no-amp / max-tu-size=32 / tu-inter-depth=1 / tu-intra-depth=1 / limit-tu=0 / rdoq-level=0 / dynamic-rd=0.00 / no-ssim-rd / signhide / no-tskip / nr-intra=0 / nr-inter=0 / no-constrained-intra / strong-intra-smoothing / max-merge=2 / limit-refs=3 / no-limit-modes / me=1 / subme=2 / merange=57 / temporal-mvp / weightp / no-weightb / no-analyze-src-pics / deblock=1:1 / no-sao / no-sao-non-deblock / rd=3 / no-early-skip / rskip / no-fast-intra / no-tskip-fast / no-cu-lossless / no-b-intra / no-splitrd-skip / rdpenalty=0 / psy-rd=0.40 / psy-rdoq=0.00 / no-rd-refine / no-lossless / cbqpoffs=0 / crqpoffs=0 / rc=crf / crf=13.0 / qcomp=0.60 / qpstep=4 / stats-write=0 / stats-read=0 / vbv-maxrate=160000 / vbv-bufsize=160000 / vbv-init=0.9 / crf-max=0.0 / crf-min=0.0 / ipratio=1.40 / pbratio=1.30 / aq-mode=1 / aq-strength=0.40 / cutree / zone-count=0 / no-strict-cbr / qg-size=32 / no-rc-grain / qpmax=69 / qpmin=0 / no-const-vbv / sar=1 / overscan=0 / videoformat=5 / range=0 / colorprim=9 / transfer=16 / colormatrix=9 / chromaloc=1 / chromaloc-top=2 / chromaloc-bottom=2 / display-window=0 / master-display=G(13250,34500)B(7500,3000)R(34000,16000)WP(15635,16450)L(10000000,10) / max-cll=1000,462 / min-luma=0 / max-luma=1023 / log2-max-poc-lsb=8 / vui-timing-info / vui-hrd-info / slices=1 / opt-qp-pps / opt-ref-list-length-pps / no-multi-pass-opt-rps / scenecut-bias=0.05 / no-opt-cu-delta-qp / no-aq-motion / hdr / hdr-opt / no-dhdr10-opt / no-idr-recovery-sei / analysis-reuse-level=5 / scale-factor=0 / refine-intra=0 / refine-inter=0 / refine-mv=0 / refine-ctu-distortion=0 / no-limit-sao / ctu-info=0 / no-lowpass-dct / refine-analysis-type=0 / copy-pic=1 / max-ausize-factor=1.0 / no-dynamic-refine / no-single-sei / no-hevc-aq / no-svt / qp-adaptation-range=1.00
    Default                     : Yes
    Forced                      : No
    Color range                 : Limited
    Color primaries             : BT.2020
    Transfer characteristics    : PQ
    Matrix coefficients         : BT.2020 non-constant
    Mastering display color pri : Display P3
    Mastering display luminance : min: 0.0010 cd/m2, max: 1000 cd/m2
    Maximum Content Light Level : 1000 cd/m2
    Maximum Frame-Average Light : 462 cd/m2

    Audio #1
    ID                          : 2
    Format                      : E-AC-3
    Format/Info                 : Enhanced AC-3
    Commercial name             : Dolby Digital Plus
    Format profile              : Blu-ray Disc
    Codec ID                    : A_EAC3
    Duration                    : 1 h 30 min
    Bit rate mode               : Constant
    Bit rate                    : 768 kb/s
    Channel(s)                  : 8 channels
    Channel layout              : L R C LFE Ls Rs Lb Rb
    Sampling rate               : 48.0 kHz
    Frame rate                  : 31.250 FPS (1536 SPF)
    Compression mode            : Lossy
    Stream size                 : 498 MiB (5%)
    Title                       : Español Latino [CinemaniaHDD]
    Language                    : Spanish
    Service kind                : Complete Main
    Default                     : Yes
    Forced                      : Yes

    Audio #2
    ID                          : 3
    Format                      : DTS XLL
    Format/Info                 : Digital Theater Systems
    Commercial name             : DTS-HD Master Audio
    Codec ID                    : A_DTS
    Duration                    : 1 h 30 min
    Bit rate mode               : Variable
    Bit rate                    : 4 148 kb/s
    Channel(s)                  : 8 channels
    Channel layout              : C L R LFE Lb Rb Lss Rss
    Sampling rate               : 48.0 kHz
    Frame rate                  : 93.750 FPS (512 SPF)
    Bit depth                   : 24 bits
    Compression mode            : Lossless
    Stream size                 : 2.63 GiB (26%)
    Title                       : Ingles [CinemaniaHDD]
    Language                    : English
    Default                     : No
    Forced                      : No

    Audio #3
    ID                          : 4
    Format                      : AC-3
    Format/Info                 : Audio Coding 3
    Commercial name             : Dolby Digital
    Codec ID                    : A_AC3
    Duration                    : 1 h 30 min
    Bit rate mode               : Constant
    Bit rate                    : 640 kb/s
    Channel(s)                  : 6 channels
    Channel layout              : L R C LFE Ls Rs
    Sampling rate               : 48.0 kHz
    Frame rate                  : 31.250 FPS (1536 SPF)
    Compression mode            : Lossy
    Stream size                 : 415 MiB (4%)
    Title                       : Español Latino AC3 [CinemaniaHDD]
    Language                    : Spanish
    Service kind                : Complete Main
    Default                     : No
    Forced                      : No

    Text #1
    ID                          : 5
    Format                      : PGS
    Muxing mode                 : zlib
    Codec ID                    : S_HDMV/PGS
    Codec ID/Info               : Picture based subtitle format used on BDs/HD-DVDs
    Duration                    : 1 h 29 min
    Bit rate                    : 174 b/s
    Count of elements           : 16
    Stream size                 : 114 KiB (0%)
    Title                       : Sub_Forzados [PGS]
    Language                    : Spanish
    Default                     : Yes
    Forced                      : Yes

    Text #2
    ID                          : 6
    Format                      : PGS
    Muxing mode                 : zlib
    Codec ID                    : S_HDMV/PGS
    Codec ID/Info               : Picture based subtitle format used on BDs/HD-DVDs
    Duration                    : 1 h 29 min
    Bit rate                    : 42.4 kb/s
    Count of elements           : 2772
    Stream size                 : 27.3 MiB (0%)
    Title                       : Sub_Esp [PGS]
    Language                    : Spanish
    Default                     : No
    Forced                      : No

    Text #3
    ID                          : 7
    Format                      : PGS
    Muxing mode                 : zlib
    Codec ID                    : S_HDMV/PGS
    Codec ID/Info               : Picture based subtitle format used on BDs/HD-DVDs
    Duration                    : 1 h 24 min
    Bit rate                    : 52.3 kb/s
    Count of elements           : 3034
    Stream size                 : 31.5 MiB (0%)
    Title                       : Sub_Eng [PGS]
    Language                    : English
    Default                     : No
    Forced                      : No

    Text #4
    ID                          : 8
    Format                      : UTF-8
    Codec ID                    : S_TEXT/UTF8
    Codec ID/Info               : UTF-8 Plain Text
    Duration                    : 1 h 29 min
    Bit rate                    : 0 b/s
    Count of elements           : 8
    Stream size                 : 126 Bytes (0%)
    Title                       : Sub_Forzados
    Language                    : Spanish
    Default                     : No
    Forced                      : No

    Text #5
    ID                          : 9
    Format                      : UTF-8
    Codec ID                    : S_TEXT/UTF8
    Codec ID/Info               : UTF-8 Plain Text
    Duration                    : 1 h 29 min
    Bit rate                    : 64 b/s
    Count of elements           : 1410
    Stream size                 : 42.7 KiB (0%)
    Title                       : Sub_Esp
    Language                    : Spanish
    Default                     : No
    Forced                      : No

    Menu
    00:00:00.000                : en:Chapter 1
    00:05:12.771                : en:Chapter 2
    00:08:44.899                : en:Chapter 3
    00:12:51.729                : en:Chapter 4
    00:18:25.813                : en:Chapter 5
    00:22:58.836                : en:Chapter 6
    00:27:36.405                : en:Chapter 7
    00:30:34.583                : en:Chapter 8
    00:34:23.353                : en:Chapter 9
    00:38:27.138                : en:Chapter 10
    00:41:13.096                : en:Chapter 11
    00:46:19.276                : en:Chapter 12
    00:50:12.426                : en:Chapter 13
    00:54:22.926                : en:Chapter 14
    00:59:22.726                : en:Chapter 15
    01:03:39.274                : en:Chapter 16
    01:06:25.523                : en:Chapter 17
    01:10:18.297                : en:Chapter 18
    01:15:41.829                : en:Chapter 19
    01:21:19.917                : en:Chapter 20

  • Peso: 10.1 GiB

Sinopsis

Descargar Trolls 2: Gira mundial (2020) 4K UHD HDR Latino. En una aventura que les llevará más allá de todo lo que habían conocido, Poppy y Branch descubren que su tribu de Trolls es solo una de las seis que existen, que el resto están repartidas en seis reinos y consagradas a seis tipos distintos de música: funk, country, tecno, clásica, pop y rock. La reina Bárbara, miembro de la realeza del hard rock, y su padre, el Rey Metal, quieren acabar con el resto de géneros musicales e imponer el reinado del rock. Con el destino del mundo en juego, Poppy y Branch, junto con el resto de la pandilla — Grandullón, Chanelle, Satén, Cooper y Guy Diamante—, visitarán los demás reinos para unir a los Trolls contra los planes de Barb de eclipsarlos a todos.

Audio Español Latino EAC3 7.1 + AC3 5.1 Bluray – Ingles DTS-HD 7.1 Bluray

Ficha técnica

Video trailer de la película

Enlaces de descarga

Rip de Bluray

Descargar Trolls 2: Gira mundial (2020) 4K UHD HDR Latino




Aportes de DPeliculasHDmega la pass es:dpeliculashdmega.org Aportes de CinemaniaHD la pass es:cinemaniahdd.com

Películas relacionadas

  • Wiener Dog Internationals (2017) WEB-DL 1080p Latino

    Wiener Dog Internationals (2017) WEB-DL 1080p Latino

    2017
    Wiener Dog Internationals (2017) WEB-DL 1080p Latino

    5.0 0h 0m 2017

    Después de vencer a la competencia en las nacionales, la familia Jack se prepara para el International...

    Director: Kevan Peterson

    Género: Comedia

    Actores: Selah Joy

  • One More Time (2016) WEB-DL 1080p Latino

    One More Time (2016) WEB-DL 1080p Latino

    2016
    One More Time (2016) WEB-DL 1080p Latino

    5.0 1h 38m 2016

    Jude (Heard) es una joven aspirante a estrella del rock se ha quedado atrapada en la rutina, relegada...

    Director: Robert Edwards

    Género: Comedia

    Actores: Sandra Berrios

  • Barefoot (2014) WEB-DL 1080p Latino

    Barefoot (2014) WEB-DL 1080p Latino

    2014
    Barefoot (2014) WEB-DL 1080p Latino

    5.0 1h 30m 2014

    Un joven rebelde de una familia rica conoce a una paciente psiquiátrica que ha estado aislada prácticamente...

    Director: Andrew Fleming

    Género: Comedia

    Actores: Will Gluck

  • La Familia De Pie Grande (2020) HD 1080p Latino

    La Familia De Pie Grande (2020) HD 1080p Latino

    2020
    La Familia De Pie Grande (2020) HD 1080p Latino

    0.0 1h 36m 2020

    Descargar La Familia De Pie Grande (2020) HD 1080p Latino. Bigfoot, el padre de Adam, quiere utilizar...

    Director: Jérémie Degruson

    Género: Animación

    Actores: Xavier Fagnon

Trolls 2: Gira mundial (2020) 4K UHD HDR Latino pelicula full hd, Trolls 2: Gira mundial (2020) 4K UHD HDR Latino mega latino, Trolls 2: Gira mundial (2020) 4K UHD HDR Latino 4k latino, Trolls 2: Gira mundial (2020) 4K UHD HDR Latino pelicula completa, Trolls 2: Gira mundial (2020) 4K UHD HDR Latino descargar gratis, descargar Trolls 2: Gira mundial (2020) 4K UHD HDR Latino pelicula latino, Trolls 2: Gira mundial (2020) 4K UHD HDR Latino 1 link mega, Trolls 2: Gira mundial (2020) 4K UHD HDR Latino 1 link google drive, Trolls 2: Gira mundial (2020) 4K UHD HDR Latino hd 1080p latino.
Comentarios 0