×

¿Problemas para descargar con Mozilla, EDGE? Deshabilita la opción "Abrir vinculos en una pestaña nueva" tal como lo muestra ésta imagen.

Trolls 3: Se armó la banda (2023) WEB-DL 4K UHD HDR Latino

150 vistas

Información de Trolls 3: Se armó la banda (2023) WEB-DL 4K UHD HDR Latino

Datos de la película

  • Calidad: WEBDL
  • Audio: Español Latino AC3 5.1 WEB-DL - Ingles AC3 5.1 WEB-DL
  • Subtitulos: Español Latino SRT- FORZADOS SRT
  • Resolución: 3840x1602p
  • Formato: MKV
  • Codec: HEVC
  • Encoder: Melkor
  • Mediainfo: Clic para Mostrar Datos Ver
  • Trolls Se Armo La Banda (2023) WEB UHD HDR Latino.mkv
    Format                      : Matroska
    Format version              : Version 4
    File size                   : 16.1 GiB
    Duration                    : 1 h 31 min
    Overall bit rate            : 25.2 Mb/s
    Movie name                  : Trolls Band Together (2023) CinemaniaHDD.Net
    Encoded date                : UTC 2023-12-04 03:38:22
    Writing application         : mkvmerge v56.1.0 ('My Friend') 64-bit
    Writing library             : libebml v1.4.2 + libmatroska v1.6.4
    Attachments                 : CINEMANIAHD.png
    Site                        : CinemaniaHDD.Net
    Uploader                    : Melkor

    Video
    ID                          : 1
    Format                      : HEVC
    Format/Info                 : High Efficiency Video Coding
    Format profile              : Main 10@L5@High
    HDR format                  : Dolby Vision, Version 1.0, dvhe.08.06, BL+RPU, HDR10 compatible / SMPTE ST 2094 App 4, Version 1, HDR10+ Profile B compatible
    Codec ID                    : V_MPEGH/ISO/HEVC
    Duration                    : 1 h 31 min
    Bit rate                    : 24.1 Mb/s
    Width                       : 3 840 pixels
    Height                      : 1 602 pixels
    Display aspect ratio        : 2.40:1
    Frame rate mode             : Constant
    Frame rate                  : 23.976 (24000/1001) FPS
    Original frame rate         : 23.976 (23976/1000) FPS
    Color space                 : YUV
    Chroma subsampling          : 4:2:0 (Type 2)
    Bit depth                   : 10 bits
    Bits/(Pixel*Frame)          : 0.163
    Stream size                 : 15.4 GiB (95%)
    Title                       : Web 2160p HDR [CinemaniaHDD]
    Language                    : English
    Default                     : Yes
    Forced                      : No
    Color range                 : Limited
    Color primaries             : BT.2020
    Transfer characteristics    : PQ
    Matrix coefficients         : BT.2020 non-constant
    Mastering display color pri : Display P3
    Mastering display luminance : min: 0.0050 cd/m2, max: 4000 cd/m2
    Maximum Content Light Level : 1041 cd/m2
    Maximum Frame-Average Light : 646 cd/m2

    Audio #1
    ID                          : 2
    Format                      : AC-3
    Format/Info                 : Audio Coding 3
    Commercial name             : Dolby Digital
    Codec ID                    : A_AC3
    Duration                    : 1 h 31 min
    Bit rate mode               : Constant
    Bit rate                    : 384 kb/s
    Channel(s)                  : 6 channels
    Channel layout              : L R C LFE Ls Rs
    Sampling rate               : 48.0 kHz
    Frame rate                  : 31.250 FPS (1536 SPF)
    Compression mode            : Lossy
    Stream size                 : 251 MiB (2%)
    Title                       : Español Latino [CinemaniaHDD]
    Language                    : Spanish
    Service kind                : Complete Main
    Default                     : Yes
    Forced                      : Yes

    Audio #2
    ID                          : 3
    Format                      : E-AC-3 JOC
    Format/Info                 : Enhanced AC-3 with Joint Object Coding
    Commercial name             : Dolby Digital Plus with Dolby Atmos
    Codec ID                    : A_EAC3
    Duration                    : 1 h 31 min
    Bit rate mode               : Constant
    Bit rate                    : 768 kb/s
    Channel(s)                  : 6 channels
    Channel layout              : L R C LFE Ls Rs
    Sampling rate               : 48.0 kHz
    Frame rate                  : 31.250 FPS (1536 SPF)
    Compression mode            : Lossy
    Stream size                 : 503 MiB (3%)
    Title                       : Ingles [CinemaniaHDD]
    Language                    : English
    Service kind                : Complete Main
    Default                     : No
    Forced                      : No
    Complexity index            : 16
    Number of dynamic objects   : 15
    Bed channel count           : 1 channel
    Bed channel configuration   : LFE

    Text #1
    ID                          : 4
    Format                      : UTF-8
    Codec ID                    : S_TEXT/UTF8
    Codec ID/Info               : UTF-8 Plain Text
    Duration                    : 1 h 18 min
    Bit rate                    : 0 b/s
    Count of elements           : 26
    Stream size                 : 529 Bytes (0%)
    Title                       : Forzados-SRT [CinemaniaHDD]
    Language                    : Spanish
    Default                     : Yes
    Forced                      : Yes

    Text #2
    ID                          : 5
    Format                      : UTF-8
    Codec ID                    : S_TEXT/UTF8
    Codec ID/Info               : UTF-8 Plain Text
    Duration                    : 1 h 30 min
    Bit rate                    : 82 b/s
    Count of elements           : 1644
    Stream size                 : 54.7 KiB (0%)
    Title                       : Español-SRT [CinemaniaHDD]
    Language                    : Spanish
    Default                     : No
    Forced                      : No

    Text #3
    ID                          : 6
    Format                      : UTF-8
    Codec ID                    : S_TEXT/UTF8
    Codec ID/Info               : UTF-8 Plain Text
    Duration                    : 1 h 30 min
    Bit rate                    : 102 b/s
    Count of elements           : 2157
    Stream size                 : 67.9 KiB (0%)
    Title                       : Ingles-SRT [CinemaniaHDD]
    Language                    : English
    Default                     : No
    Forced                      : No

    Menu
    00:00:00.000                : Chapter 01
    00:05:16.858                : Chapter 02
    00:12:20.657                : Chapter 03
    00:21:59.611                : Chapter 04
    00:26:07.609                : Chapter 05
    00:30:46.596                : Chapter 06
    00:37:39.342                : Chapter 07
    00:40:30.764                : Chapter 08
    00:43:14.052                : Chapter 09
    00:53:01.139                : Chapter 10
    00:55:36.836                : Chapter 11
    01:01:44.537                : Chapter 12
    01:07:54.616                : Chapter 13
    01:11:36.546                : Chapter 14
    01:16:26.503                : Chapter 15
    01:21:20.380                : Chapter 16

  • Peso: 16.1 GiB

Sinopsis

Descargar Trolls 3: Se armó la banda (2023) WEB-DL 4K UHD HDR Latino. Cuando Floyd, uno de los hermanos de Branch, es secuestrado por una pareja de maléficas estrellas del pop para aprovecharse de su talento musical, Branch y Poppy tendrán que embarcarse en un viaje tan aterrador como emotivo para reunir a la familia y rescatar a Floyd de un destino aún peor que el desolador olvido de los fans.

Ficha técnica

Video trailer de la película

Enlaces de descarga

Rip de Bluray

Descargar Trolls 3: Se armó la banda (2023) WEB-DL 4K UHD HDR Latino




Aportes de DPeliculasHDmega la pass es:dpeliculashdmega.org Aportes de CinemaniaHD la pass es:cinemaniahdd.com Aportes recientes:cinemaniahdd.net

Películas relacionadas

  • Good Burger 2 (2023) HD 1080p Latino

    Good Burger 2 (2023) HD 1080p Latino

    2023
    Good Burger 2 (2023) HD 1080p Latino

    1h 31m 2023

    Descargar Good Burger 2 (2023) HD 1080p Latino. Después de que su último invento falla, Ed le da la...

    Director: Ross Novie

    Género: Comedia

    Actores: Zoe Saldana

  • Good Burger 2 (2023) PLACEBO Full HD 1080p Latino

    Good Burger 2 (2023) PLACEBO Full HD 1080p Latino

    2023
    Good Burger 2 (2023) PLACEBO Full HD 1080p Latino

    1h 31m 2023

    Descargar Good Burger 2 (2023) PLACEBO Full HD 1080p Latino. Después de que su último invento falla,...

    Director: Ross Novie

    Género: Comedia

    Actores: Zoe Saldana

  • Good Burger 2 (2023) REMUX 1080p Latino

    Good Burger 2 (2023) REMUX 1080p Latino

    2023
    Good Burger 2 (2023) REMUX 1080p Latino

    1h 31m 2023

    Descargar Good Burger 2 (2023) REMUX 1080p Latino. Después de que su último invento falla, Ed le da...

    Director: Ross Novie

    Género: Comedia

    Actores: Zoe Saldana

descargar Trolls 3: Se armó la banda (2023) WEB-DL 4K UHD HDR Latino WEBDL 1080p gratis, Trolls 3: Se armó la banda (2023) WEB-DL 4K UHD HDR Latino WEBDL mega 1 link, Trolls 3: Se armó la banda (2023) WEB-DL 4K UHD HDR Latino WEBDL pelicula completa, descargar Trolls 3: Se armó la banda (2023) WEB-DL 4K UHD HDR Latino WEBDL gratis en mega.

Trolls 3: Se armó la banda (2023) WEB-DL 4K UHD HDR Latino pelicula full hd, Trolls 3: Se armó la banda (2023) WEB-DL 4K UHD HDR Latino mega latino, Trolls 3: Se armó la banda (2023) WEB-DL 4K UHD HDR Latino 4k latino, Trolls 3: Se armó la banda (2023) WEB-DL 4K UHD HDR Latino pelicula completa, Trolls 3: Se armó la banda (2023) WEB-DL 4K UHD HDR Latino descargar gratis, descargar Trolls 3: Se armó la banda (2023) WEB-DL 4K UHD HDR Latino pelicula latino, Trolls 3: Se armó la banda (2023) WEB-DL 4K UHD HDR Latino 1 link mega, Trolls 3: Se armó la banda (2023) WEB-DL 4K UHD HDR Latino 1 link google drive, Trolls 3: Se armó la banda (2023) WEB-DL 4K UHD HDR Latino hd 1080p latino.
Comentarios 0