×

¿Problemas para descargar con Mozilla, EDGE? Deshabilita la opción "Abrir vinculos en una pestaña nueva" tal como lo muestra ésta imagen.

Trolls (2016) REMUX 1080p Latino

603 vistas

Información de Trolls (2016) REMUX 1080p Latino

Datos de la película

  • Calidad: Full 1080p
  • Audio: Español Latino AC3 5.1 BLURAY - Ingles DTS-HD Master 7.1 BLURAY
  • Subtitulos: Español Latino PGS - Ingles PGS
  • Resolución: 1920x1080p
  • Formato: MKV
  • Codec: H.264
  • Encoder: Dracarys | CinefiloCool
  • Mediainfo: Clic para Mostrar Datos Ver
  • Trolls (2016) REMUX 1080p Latino-CMHDD.mkv
    Format                      : Matroska
    Format version              : Version 4
    File size                   : 20.4 GiB
    Duration                    : 1 h 32 min
    Overall bit rate mode       : Variable
    Overall bit rate            : 31.6 Mb/s
    Movie name                  : Trolls (2016) CinemaniaHDD.Net
    Encoded date                : UTC 2020-07-04 16:57:51
    Writing application         : mkvmerge v46.0.0 ('No Deeper Escape') 64-bit
    Writing library             : libebml v1.3.10 + libmatroska v1.5.2
    Attachments                 : CINEMANIAHD.png

    Video
    ID                          : 1
    Format                      : AVC
    Format/Info                 : Advanced Video Codec
    Format profile              : High@L4.1
    Format settings             : CABAC / 4 Ref Frames
    Format settings, CABAC      : Yes
    Format settings, Reference  : 4 frames
    Codec ID                    : V_MPEG4/ISO/AVC
    Duration                    : 1 h 32 min
    Bit rate mode               : Variable
    Bit rate                    : 26.6 Mb/s
    Maximum bit rate            : 33.0 Mb/s
    Width                       : 1 920 pixels
    Height                      : 1 080 pixels
    Display aspect ratio        : 16:9
    Frame rate mode             : Constant
    Frame rate                  : 23.976 (23976/1000) FPS
    Original frame rate         : 23.976 (24000/1001) FPS
    Color space                 : YUV
    Chroma subsampling          : 4:2:0
    Bit depth                   : 8 bits
    Scan type                   : Progressive
    Bits/(Pixel*Frame)          : 0.535
    Stream size                 : 17.2 GiB (84%)
    Title                       : REMUX 1080p [CinemaniaHDD]
    Default                     : Yes
    Forced                      : No

    Audio #1
    ID                          : 2
    Format                      : AC-3
    Format/Info                 : Audio Coding 3
    Commercial name             : Dolby Digital
    Codec ID                    : A_AC3
    Duration                    : 1 h 32 min
    Bit rate mode               : Constant
    Bit rate                    : 448 kb/s
    Channel(s)                  : 6 channels
    Channel layout              : L R C LFE Ls Rs
    Sampling rate               : 48.0 kHz
    Frame rate                  : 31.250 FPS (1536 SPF)
    Compression mode            : Lossy
    Stream size                 : 296 MiB (1%)
    Title                       : Español Latino [CinemaniaHDD]
    Language                    : Spanish
    Service kind                : Complete Main
    Default                     : Yes
    Forced                      : No

    Audio #2
    ID                          : 3
    Format                      : DTS ES XLL
    Format/Info                 : Digital Theater Systems
    Commercial name             : DTS-HD Master Audio
    Codec ID                    : A_DTS
    Duration                    : 1 h 32 min
    Bit rate mode               : Variable
    Bit rate                    : 4 467 kb/s
    Channel(s)                  : 8 channels
    Channel layout              : C L R Ls Rs LFE Lb Rb
    Sampling rate               : 48.0 kHz
    Frame rate                  : 93.750 FPS (512 SPF)
    Bit depth                   : 24 bits
    Compression mode            : Lossless
    Stream size                 : 2.88 GiB (14%)
    Title                       : Ingles [CinemaniaHDD]
    Language                    : English
    Default                     : No
    Forced                      : No

    Text #1
    ID                          : 4
    Format                      : PGS
    Muxing mode                 : zlib
    Codec ID                    : S_HDMV/PGS
    Codec ID/Info               : Picture based subtitle format used on BDs/HD-DVDs
    Duration                    : 1 h 31 min
    Bit rate                    : 34.7 kb/s
    Count of elements           : 2588
    Stream size                 : 22.7 MiB (0%)
    Title                       : Español-PGS [CinemaniaHDD]
    Language                    : Spanish
    Default                     : No
    Forced                      : No

    Text #2
    ID                          : 5
    Format                      : PGS
    Muxing mode                 : zlib
    Codec ID                    : S_HDMV/PGS
    Codec ID/Info               : Picture based subtitle format used on BDs/HD-DVDs
    Duration                    : 1 h 29 min
    Bit rate                    : 51.4 kb/s
    Count of elements           : 3803
    Stream size                 : 33.1 MiB (0%)
    Title                       : Ingles-PGS [CinemaniaHDD]
    Language                    : English
    Default                     : No
    Forced                      : No

    Text #3
    ID                          : 6
    Format                      : UTF-8
    Codec ID                    : S_TEXT/UTF8
    Codec ID/Info               : UTF-8 Plain Text
    Duration                    : 5 min 42 s
    Bit rate                    : 1 b/s
    Count of elements           : 2
    Stream size                 : 48.0 Bytes (0%)
    Title                       : Forzados-SRT [CinemaniaHDD]
    Language                    : Spanish
    Default                     : Yes
    Forced                      : No

    Text #4
    ID                          : 7
    Format                      : UTF-8
    Codec ID                    : S_TEXT/UTF8
    Codec ID/Info               : UTF-8 Plain Text
    Duration                    : 1 h 23 min
    Bit rate                    : 63 b/s
    Count of elements           : 1290
    Stream size                 : 39.0 KiB (0%)
    Title                       : Español-SRT [CinemaniaHDD]
    Language                    : Spanish
    Default                     : No
    Forced                      : No

    Menu
    00:00:00.000                : en:Chapter 01
    00:02:20.473                : en:Chapter 02
    00:06:22.924                : en:Chapter 03
    00:10:42.641                : en:Chapter 04
    00:13:26.597                : en:Chapter 05
    00:18:34.363                : en:Chapter 06
    00:22:12.789                : en:Chapter 07
    00:25:41.081                : en:Chapter 08
    00:28:53.731                : en:Chapter 09
    00:32:55.097                : en:Chapter 10
    00:36:33.107                : en:Chapter 11
    00:40:56.787                : en:Chapter 12
    00:44:21.658                : en:Chapter 13
    00:47:27.969                : en:Chapter 14
    00:51:27.083                : en:Chapter 15
    00:55:45.675                : en:Chapter 16
    00:59:58.761                : en:Chapter 17
    01:03:17.084                : en:Chapter 18
    01:05:17.663                : en:Chapter 19
    01:07:56.530                : en:Chapter 20
    01:10:25.262                : en:Chapter 21
    01:13:31.656                : en:Chapter 22
    01:16:21.242                : en:Chapter 23
    01:21:44.732                : en:Chapter 24

  • Peso: 20.4 GiB

Sinopsis

Descargar Trolls (2016) REMUX 1080p Latino. Adorable y amable, a los trolls les encanta jugar. Pero un día, un gigante misterioso aparece para terminar la fiesta. Poppy, la líder optimista de los Trolls, y su polo opuesto, Branch, deben embarcarse en una aventura que les lleva mucho más allá del único mundo que han conocido.

RESUBIDO

Ficha técnica

Video trailer de la película

Enlaces de descarga

Rip de Bluray

Descargar Trolls (2016) REMUX 1080p Latino




Aportes de DPeliculasHDmega la pass es:dpeliculashdmega.org Aportes de CinemaniaHD la pass es:cinemaniahdd.com

Películas relacionadas

descargar Trolls (2016) REMUX 1080p Latino Full 1080p 1080p gratis, Trolls (2016) REMUX 1080p Latino Full 1080p mega 1 link, Trolls (2016) REMUX 1080p Latino Full 1080p pelicula completa, descargar Trolls (2016) REMUX 1080p Latino Full 1080p gratis en mega.

Trolls (2016) REMUX 1080p Latino pelicula full hd, Trolls (2016) REMUX 1080p Latino mega latino, Trolls (2016) REMUX 1080p Latino 4k latino, Trolls (2016) REMUX 1080p Latino pelicula completa, Trolls (2016) REMUX 1080p Latino descargar gratis, descargar Trolls (2016) REMUX 1080p Latino pelicula latino, Trolls (2016) REMUX 1080p Latino 1 link mega, Trolls (2016) REMUX 1080p Latino 1 link google drive, Trolls (2016) REMUX 1080p Latino hd 1080p latino.
Comentarios 0