×

¿Problemas para descargar con Mozilla, EDGE? Deshabilita la opción "Abrir vinculos en una pestaña nueva" tal como lo muestra ésta imagen.

La guerra por un troyano (1997) AMZN WEB-DL 1080p Latino-CMHDD

80 vistas

Información de La guerra por un troyano (1997) AMZN WEB-DL 1080p Latino-CMHDD

Datos de la película

  • Calidad: WEBDL
  • Audio: Se especifica abajo de la Sinopsis
  • Subtitulos: Español Latino SRT - Ingles SRT
  • Resolución: 1920x1080p
  • Formato: MKV
  • Codec: H.264
  • Encoder: CinefiloCool
  • Mediainfo: Clic para Mostrar Datos Ver
  • Trojan.War.1997.AMZN.WEB.1080p.x264.Latino-CC@CMHDD.mkv
    Format                      : Matroska
    Format version              : Version 4
    File size                   : 7.55 GiB
    Duration                    : 1 h 22 min
    Overall bit rate mode       : Variable
    Overall bit rate            : 13.0 Mb/s
    Movie name                  : Trojan War (1997) CinemaniaHDD.Net
    Encoded date                : UTC 2024-01-15 00:21:50
    Writing application         : mkvmerge v56.1.0 ('My Friend') 64-bit
    Writing library             : libebml v1.4.2 + libmatroska v1.6.4
    Attachments                 : CINEMANIAHD.png

    Video
    ID                          : 1
    Format                      : AVC
    Format/Info                 : Advanced Video Codec
    Format profile              : High@L4
    Format settings             : CABAC / 4 Ref Frames
    Format settings, CABAC      : Yes
    Format settings, Reference  : 4 frames
    Codec ID                    : V_MPEG4/ISO/AVC
    Duration                    : 1 h 22 min
    Bit rate mode               : Variable
    Bit rate                    : 12.1 Mb/s
    Maximum bit rate            : 15.0 Mb/s
    Width                       : 1 920 pixels
    Height                      : 1 080 pixels
    Display aspect ratio        : 16:9
    Frame rate mode             : Constant
    Frame rate                  : 23.976 (24000/1001) FPS
    Color space                 : YUV
    Chroma subsampling          : 4:2:0
    Bit depth                   : 8 bits
    Scan type                   : Progressive
    Bits/(Pixel*Frame)          : 0.243
    Stream size                 : 6.99 GiB (93%)
    Title                       : Web HD1080p [CinemaniaHDD]
    Language                    : English
    Default                     : Yes
    Forced                      : Yes
    Color range                 : Limited
    Color primaries             : BT.709
    Transfer characteristics    : BT.709
    Matrix coefficients         : BT.709

    Audio #1
    ID                          : 2
    Format                      : AC-3
    Format/Info                 : Audio Coding 3
    Commercial name             : Dolby Digital
    Codec ID                    : A_AC3
    Duration                    : 1 h 22 min
    Bit rate mode               : Constant
    Bit rate                    : 320 kb/s
    Channel(s)                  : 2 channels
    Channel layout              : L R
    Sampling rate               : 44.1 kHz
    Frame rate                  : 28.711 FPS (1536 SPF)
    Compression mode            : Lossy
    Stream size                 : 189 MiB (2%)
    Title                       : Español Latino [CinemaniaHDD]
    Language                    : Spanish
    Service kind                : Complete Main
    Default                     : Yes
    Forced                      : Yes

    Audio #2
    ID                          : 3
    Format                      : E-AC-3
    Format/Info                 : Enhanced AC-3
    Commercial name             : Dolby Digital Plus
    Codec ID                    : A_EAC3
    Duration                    : 1 h 22 min
    Bit rate mode               : Constant
    Bit rate                    : 640 kb/s
    Channel(s)                  : 6 channels
    Channel layout              : L R C LFE Ls Rs
    Sampling rate               : 48.0 kHz
    Frame rate                  : 31.250 FPS (1536 SPF)
    Compression mode            : Lossy
    Stream size                 : 379 MiB (5%)
    Title                       : Ingles [CinemaniaHDD]
    Language                    : English
    Service kind                : Complete Main
    Default                     : No
    Forced                      : No

    Text #1
    ID                          : 4
    Format                      : UTF-8
    Codec ID                    : S_TEXT/UTF8
    Codec ID/Info               : UTF-8 Plain Text
    Duration                    : 44 min 58 s
    Bit rate                    : 0 b/s
    Count of elements           : 3
    Stream size                 : 79.0 Bytes (0%)
    Title                       : Forzados-SRT [CinemaniaHDD]
    Language                    : Spanish
    Default                     : Yes
    Forced                      : Yes

    Text #2
    ID                          : 5
    Format                      : UTF-8
    Codec ID                    : S_TEXT/UTF8
    Codec ID/Info               : UTF-8 Plain Text
    Duration                    : 1 h 15 min
    Bit rate                    : 50 b/s
    Count of elements           : 1009
    Stream size                 : 28.4 KiB (0%)
    Title                       : Español-SRT [CinemaniaHDD]
    Language                    : Spanish
    Default                     : No
    Forced                      : No

    Text #3
    ID                          : 6
    Format                      : UTF-8
    Codec ID                    : S_TEXT/UTF8
    Codec ID/Info               : UTF-8 Plain Text
    Duration                    : 1 h 22 min
    Bit rate                    : 67 b/s
    Count of elements           : 1795
    Stream size                 : 40.7 KiB (0%)
    Title                       : Ingles-SRT [CinemaniaHDD]
    Language                    : English
    Default                     : No
    Forced                      : No

  • Peso: 7.55 GiB

Sinopsis

Descargar La guerra por un troyano (1997) AMZN WEB-DL 1080p Latino-CMHDD. A la velocidad de un rayo, Brad sale a la búsqueda de uno y algo que parece tan fácil como conseguir un condón se va a convertir en una arriesgada pero divertida aventura que compartirá con su amiga Leah, una guapa morena secretamente enamorada de él que aprovechará esta aventura para conseguir el corazón de Brad.

Español Latino AC3 2.0 – Ingles EAC3 5.1

Ficha técnica

Video trailer de la película

Enlaces de descarga

Rip de Bluray

Descargar La guerra por un troyano (1997) AMZN WEB-DL 1080p Latino-CMHDD




Aportes de DPeliculasHDmega la pass es:dpeliculashdmega.org Aportes de CinemaniaHD la pass es:cinemaniahdd.com Aportes recientes:cinemaniahdd.net
Guardado en : Comedia , Romance

Películas relacionadas

  • La Duquesa (2008) Full HD 1080p Latino-CMHDD

    La Duquesa (2008) Full HD 1080p Latino-CMHDD

    2008
    La Duquesa (2008) Full HD 1080p Latino-CMHDD

    1h 51m 2008

    Descargar La Duquesa (2008) Full HD 1080p Latino-CMHDD. Hermosa, glamurosa y adorada por el pueblo, Georgiana...

    Director: Saul Dibb

    Género: Drama

    Actores: Thomas Arnold

  • La Duquesa (2008) REMUX 1080p Latino-CMHDD

    La Duquesa (2008) REMUX 1080p Latino-CMHDD

    2008
    La Duquesa (2008) REMUX 1080p Latino-CMHDD

    1h 51m 2008

    Descargar La Duquesa (2008) REMUX 1080p Latino-CMHDD. Hermosa, glamurosa y adorada por el pueblo, Georgiana...

    Director: Saul Dibb

    Género: Drama

    Actores: Thomas Arnold

  • Nada que ver (2023) WEB-DL 1080p Latino

    Nada que ver (2023) WEB-DL 1080p Latino

    2023
    Nada que ver (2023) WEB-DL 1080p Latino

    1h 30m 2023

    Descargar Nada que ver (2023) WEB-DL 1080p Latino. Después de que Carlos tiene la tarea de cuidar a...

    Director: Kenya Marquez

    Género: Comedia

    Actores: Rebecca Jones

descargar La guerra por un troyano (1997) AMZN WEB-DL 1080p Latino-CMHDD WEBDL 1080p gratis, La guerra por un troyano (1997) AMZN WEB-DL 1080p Latino-CMHDD WEBDL mega 1 link, La guerra por un troyano (1997) AMZN WEB-DL 1080p Latino-CMHDD WEBDL pelicula completa, descargar La guerra por un troyano (1997) AMZN WEB-DL 1080p Latino-CMHDD WEBDL gratis en mega.

La guerra por un troyano (1997) AMZN WEB-DL 1080p Latino-CMHDD pelicula full hd, La guerra por un troyano (1997) AMZN WEB-DL 1080p Latino-CMHDD mega latino, La guerra por un troyano (1997) AMZN WEB-DL 1080p Latino-CMHDD 4k latino, La guerra por un troyano (1997) AMZN WEB-DL 1080p Latino-CMHDD pelicula completa, La guerra por un troyano (1997) AMZN WEB-DL 1080p Latino-CMHDD descargar gratis, descargar La guerra por un troyano (1997) AMZN WEB-DL 1080p Latino-CMHDD pelicula latino, La guerra por un troyano (1997) AMZN WEB-DL 1080p Latino-CMHDD 1 link mega, La guerra por un troyano (1997) AMZN WEB-DL 1080p Latino-CMHDD 1 link google drive, La guerra por un troyano (1997) AMZN WEB-DL 1080p Latino-CMHDD hd 1080p latino.
Comentarios 0