×

¿Problemas para descargar con Mozilla, EDGE? Deshabilita la opción "Abrir vinculos en una pestaña nueva" tal como lo muestra ésta imagen.

Triple amenaza (2019) PLACEBO 1080p Latino

3.757 vistas

Información de Triple amenaza (2019) PLACEBO 1080p Latino

triple amenaza 50927 poster e1554142332524

Datos de la película

  • Calidad: Full 1080p
  • Audio: Se especifica abajo de la Sinopsis
  • Subtitulos: Español Latino SRT
  • Resolución: 1920x1080p
  • Formato: MKV
  • Codec: H.264
  • Encoder: cinemaniahdd
  • Mediainfo: Clic para Mostrar Datos Ver
  • Triple Amenaza (2019) PLACEBO 1080p Latino.mkv

    Format                      : Matroska
    Format version              : Version 4
    File size                   : 5.45 GiB
    Duration                    : 1 h 35 min
    Overall bit rate            : 8 143 kb/s
    Movie name                  : Triple Amenaza (2019) - CinemaniaHDD.Net
    Encoded date                : UTC 2020-04-01 01:19:11
    Writing application         : mkvmerge v42.0.0 ('Overtime') 64-bit
    Writing library             : libebml v1.3.10 + libmatroska v1.5.2

    Video
    ID                          : 1
    Format                      : AVC
    Format/Info                 : Advanced Video Codec
    Format profile              : High@L4.1
    Format settings             : CABAC / 4 Ref Frames
    Format settings, CABAC      : Yes
    Format settings, ReFrames   : 4 frames
    Codec ID                    : V_MPEG4/ISO/AVC
    Duration                    : 1 h 35 min
    Bit rate                    : 6 141 kb/s
    Width                       : 1 920 pixels
    Height                      : 1 080 pixels
    Display aspect ratio        : 16:9
    Frame rate mode             : Constant
    Frame rate                  : 23.976 (24000/1001) FPS
    Color space                 : YUV
    Chroma subsampling          : 4:2:0
    Bit depth                   : 8 bits
    Scan type                   : Progressive
    Bits/(Pixel*Frame)          : 0.124
    Stream size                 : 4.11 GiB (75%)
    Title                       : CinemaniaHDD
    Writing library             : x264 core 157 r2935 545de2f
    Encoding settings           : cabac=1 / ref=4 / deblock=1:0:0 / analyse=0x3:0x133 / me=tesa / subme=11 / psy=1 / psy_rd=1.00:0.00 / mixed_ref=1 / me_range=24 / chroma_me=1 / trellis=2 / 8x8dct=1 / cqm=0 / deadzone=21,11 / fast_pskip=0 / chroma_qp_offset=-2 / threads=34 / lookahead_threads=8 / sliced_threads=0 / nr=0 / decimate=1 / interlaced=0 / bluray_compat=0 / constrained_intra=0 / bframes=16 / b_pyramid=2 / b_adapt=2 / b_bias=0 / direct=3 / weightb=1 / open_gop=0 / weightp=2 / keyint=240 / keyint_min=24 / scenecut=40 / intra_refresh=0 / rc_lookahead=60 / rc=crf / mbtree=1 / crf=19.0 / qcomp=0.60 / qpmin=0 / qpmax=69 / qpstep=4 / vbv_maxrate=62500 / vbv_bufsize=78125 / crf_max=0.0 / nal_hrd=none / filler=0 / ip_ratio=1.40 / aq=1:1.00
    Default                     : Yes
    Forced                      : No
    Color range                 : Limited
    Color primaries             : BT.709
    Transfer characteristics    : BT.709
    Matrix coefficients         : BT.709

    Audio #1
    ID                          : 2
    Format                      : E-AC-3
    Format/Info                 : Enhanced AC-3
    Commercial name             : Dolby Digital Plus
    Codec ID                    : A_EAC3
    Duration                    : 1 h 35 min
    Bit rate mode               : Constant
    Bit rate                    : 224 kb/s
    Channel(s)                  : 2 channels
    Channel layout              : L R
    Sampling rate               : 48.0 kHz
    Frame rate                  : 31.250 FPS (1536 SPF)
    Compression mode            : Lossy
    Delay relative to video     : 990 ms
    Stream size                 : 154 MiB (3%)
    Title                       : Español latino - E-AC3 [CinemaniaHDD]
    Language                    : Spanish
    Service kind                : Complete Main
    Default                     : Yes
    Forced                      : No

    Audio #2
    ID                          : 3
    Format                      : AC-3
    Format/Info                 : Audio Coding 3
    Commercial name             : Dolby Digital
    Codec ID                    : A_AC3
    Duration                    : 1 h 35 min
    Bit rate mode               : Constant
    Bit rate                    : 256 kb/s
    Channel(s)                  : 2 channels
    Channel layout              : L R
    Sampling rate               : 48.0 kHz
    Frame rate                  : 31.250 FPS (1536 SPF)
    Bit depth                   : 16 bits
    Compression mode            : Lossy
    Stream size                 : 176 MiB (3%)
    Title                       : Español latino - AC3 [CinemaniaHDD]
    Language                    : Spanish
    Service kind                : Complete Main
    Default                     : No
    Forced                      : No

    Audio #3
    ID                          : 4
    Format                      : DTS
    Format/Info                 : Digital Theater Systems
    Codec ID                    : A_DTS
    Duration                    : 1 h 35 min
    Bit rate mode               : Constant
    Bit rate                    : 1 509 kb/s
    Channel(s)                  : 6 channels
    Channel layout              : C L R Ls Rs LFE
    Sampling rate               : 48.0 kHz
    Frame rate                  : 93.750 FPS (512 SPF)
    Bit depth                   : 24 bits
    Compression mode            : Lossy
    Stream size                 : 1.01 GiB (19%)
    Title                       : Inglés [CinemaniaHDD]
    Language                    : English
    Default                     : No
    Forced                      : No

    Text #1
    ID                          : 5
    Format                      : UTF-8
    Codec ID                    : S_TEXT/UTF8
    Codec ID/Info               : UTF-8 Plain Text
    Duration                    : 1 h 30 min
    Bit rate                    : 42 b/s
    Count of elements           : 966
    Stream size                 : 28.1 KiB (0%)
    Title                       : Español latino [CinemaniaHDD]
    Language                    : Spanish
    Default                     : No
    Forced                      : No

    Text #2
    ID                          : 6
    Format                      : PGS
    Muxing mode                 : zlib
    Codec ID                    : S_HDMV/PGS
    Codec ID/Info               : Picture based subtitle format used on BDs/HD-DVDs
    Duration                    : 1 h 30 min
    Bit rate                    : 23.6 kb/s
    Count of elements           : 1709
    Stream size                 : 15.3 MiB (0%)
    Title                       : Inglés [CinemaniaHDD]
    Language                    : Spanish
    Default                     : No
    Forced                      : No

    Menu
    00:00:00.000                : :Chapter 1
    00:08:57.495                : :Chapter 2
    00:18:26.314                : :Chapter 3
    00:25:54.136                : :Chapter 4
    00:32:34.578                : :Chapter 5
    00:41:00.375                : :Chapter 6
    00:47:44.820                : :Chapter 7
    00:57:25.692                : :Chapter 8
    01:06:16.723                : :Chapter 9
    01:14:01.354                : :Chapter 10
    01:22:20.727                : :Chapter 11
    01:31:40.996                : :Chapter 12

     

  • Peso: 5.45 GiB

Sinopsis

Se ha puesto precio a la cabeza de la hija de un multimillonario que tiene la intención de acabar con el mayor sindicato del crimen de la ciudad. Un equipo de mercenarios retirados deberán enfrentarse a un grupo de asesinos profesionales, y detenerlos antes de que maten a su objetivo.

Español Latino E-AC3 2.0 + Core AC3 2.0 – Ingles AC3 5.1 Bluray

Ficha técnica

Video trailer de la película

Enlaces de descarga

Rip de Bluray

Descargar Triple amenaza (2019) PLACEBO 1080p Latino




Aportes de DPeliculasHDmega la pass es:dpeliculashdmega.org Aportes de CinemaniaHD la pass es:cinemaniahdd.com

Películas relacionadas

  • Mi amigo el dragón (2016) Full HD 1080p Latino

    Mi amigo el dragón (2016) Full HD 1080p Latino

    2016
    Mi amigo el dragón (2016) Full HD 1080p Latino

    1h 43m 2016

    Descargar Mi amigo el dragón (2016) Full HD 1080p Latino. Durante años el Sr. Meacham, un viejo tallador...

    Director: Joe Nolan

    Género: Aventura

    Actores: William J. Rawbone

  • El discurso del Rey (2010) Full HD 1080p Latino

    El discurso del Rey (2010) Full HD 1080p Latino

    2010
    El discurso del Rey (2010) Full HD 1080p Latino

    1h 58m 2010

    Descargar El discurso del Rey (2010) Full HD 1080p Latino. El duque de York se convirtió en rey de Gran...

    Director: Tom Hooper

    Género: Drama

    Actores: Tony Earnshaw

  • Lucy (2014) REMUX 4K HDR Latino – CMHDD

    Lucy (2014) REMUX 4K HDR Latino – CMHDD

    2014
    Lucy (2014) REMUX 4K HDR Latino – CMHDD

    1h 30m 2014

    Lucy, una joven obligada a ejercer de mula de una nueva y potente droga, adquiere de repente enormes...

    Director: Luc Besson

    Género: Acción

    Actores: Wolfgang Pissors

descargar Triple amenaza (2019) PLACEBO 1080p Latino Full 1080p 1080p gratis, Triple amenaza (2019) PLACEBO 1080p Latino Full 1080p mega 1 link, Triple amenaza (2019) PLACEBO 1080p Latino Full 1080p pelicula completa, descargar Triple amenaza (2019) PLACEBO 1080p Latino Full 1080p gratis en mega.

Triple amenaza (2019) PLACEBO 1080p Latino pelicula full hd, Triple amenaza (2019) PLACEBO 1080p Latino mega latino, Triple amenaza (2019) PLACEBO 1080p Latino 4k latino, Triple amenaza (2019) PLACEBO 1080p Latino pelicula completa, Triple amenaza (2019) PLACEBO 1080p Latino descargar gratis, descargar Triple amenaza (2019) PLACEBO 1080p Latino pelicula latino, Triple amenaza (2019) PLACEBO 1080p Latino 1 link mega, Triple amenaza (2019) PLACEBO 1080p Latino 1 link google drive, Triple amenaza (2019) PLACEBO 1080p Latino hd 1080p latino.
Comentarios 1
  • Amador Constante - 22 abril, 2019

    Gracias Excelente película, el Tailandes Tony Jaa y el chino Michael Wong son una maquina de pelea, ni los grandes como: Michael Jai Whitelos o el conocido Scott Adkins, pudieron con ellos, tienen que verla,
    Full acción y artes marciales, y con el idioma original se disfruta mejor, muchas películas de este tipo, la traducción las arruinan, así sea en latino. lo mismo sucede con algunas de terror con el audio original es mejor.

    Saludos ,CinemaniaHD,