×

¿Problemas para descargar con Mozilla, EDGE? Deshabilita la opción "Abrir vinculos en una pestaña nueva" tal como lo muestra ésta imagen.

Treadstone: The Complete First Season (2019) [AMZN] WEB-DL 1080p Latino

1.338 vistas

Información de Treadstone: The Complete First Season (2019) [AMZN] WEB-DL 1080p Latino

Datos de la película

  • Calidad: WEBDL
  • Audio: Español Latino E-AC3 5.1 AMAZON - Ingles E-AC3 5.1 AMAZON
  • Subtitulos: Español Latino SRT- FORZADOS SRT
  • Resolución: 1920x1080p
  • Formato: MKV
  • Codec: H.264
  • Encoder: Dracarys
  • Mediainfo: Clic para Mostrar Datos Ver
  • Format                      : Matroska
    Format version              : Version 4
    File size                   : 1.95 GiB
    Duration                    : 42 min 22 s
    Overall bit rate            : 6 583 kb/s
    Movie name                  : CinemaniaHDD.net
    Encoded date                : UTC 2020-01-15 18:17:38
    Writing application         : mkvmerge v38.0.0 ('The Silent Type') 64-bit
    Writing library             : libebml v1.3.9 + libmatroska v1.5.2

    Video
    ID                          : 1
    Format                      : AVC
    Format/Info                 : Advanced Video Codec
    Format profile              : High@L4
    Format settings             : CABAC / 4 Ref Frames
    Format settings, CABAC      : Yes
    Format settings, ReFrames   : 4 frames
    Codec ID                    : V_MPEG4/ISO/AVC
    Duration                    : 42 min 21 s
    Bit rate                    : 5 301 kb/s
    Width                       : 1 920 pixels
    Height                      : 960 pixels
    Display aspect ratio        : 2.000
    Frame rate mode             : Constant
    Frame rate                  : 23.976 (24000/1001) FPS
    Color space                 : YUV
    Chroma subsampling          : 4:2:0
    Bit depth                   : 8 bits
    Scan type                   : Progressive
    Bits/(Pixel*Frame)          : 0.120
    Stream size                 : 1.57 GiB (81%)
    Default                     : Yes
    Forced                      : No
    Color range                 : Limited
    Color primaries             : BT.709
    Transfer characteristics    : BT.709
    Matrix coefficients         : BT.709

    Audio #1
    ID                          : 2
    Format                      : E-AC-3
    Format/Info                 : Enhanced AC-3
    Commercial name             : Dolby Digital Plus
    Codec ID                    : A_EAC3
    Duration                    : 42 min 22 s
    Bit rate mode               : Constant
    Bit rate                    : 640 kb/s
    Channel(s)                  : 6 channels
    Channel layout              : L R C LFE Ls Rs
    Sampling rate               : 48.0 kHz
    Frame rate                  : 31.250 FPS (1536 SPF)
    Compression mode            : Lossy
    Stream size                 : 194 MiB (10%)
    Language                    : Spanish
    Service kind                : Complete Main
    Default                     : Yes
    Forced                      : No

    Audio #2
    ID                          : 3
    Format                      : E-AC-3
    Format/Info                 : Enhanced AC-3
    Commercial name             : Dolby Digital Plus
    Codec ID                    : A_EAC3
    Duration                    : 42 min 22 s
    Bit rate mode               : Constant
    Bit rate                    : 640 kb/s
    Channel(s)                  : 6 channels
    Channel layout              : L R C LFE Ls Rs
    Sampling rate               : 48.0 kHz
    Frame rate                  : 31.250 FPS (1536 SPF)
    Compression mode            : Lossy
    Stream size                 : 194 MiB (10%)
    Language                    : English
    Service kind                : Complete Main
    Default                     : No
    Forced                      : No

    Text #1
    ID                          : 4
    Format                      : UTF-8
    Codec ID                    : S_TEXT/UTF8
    Codec ID/Info               : UTF-8 Plain Text
    Duration                    : 41 min 28 s
    Bit rate                    : 51 b/s
    Count of elements           : 456
    Stream size                 : 15.7 KiB (0%)
    Language                    : Spanish
    Default                     : No
    Forced                      : No

    Text #2
    ID                          : 5
    Format                      : UTF-8
    Codec ID                    : S_TEXT/UTF8
    Codec ID/Info               : UTF-8 Plain Text
    Duration                    : 23 min 19 s
    Bit rate                    : 24 b/s
    Count of elements           : 140
    Stream size                 : 4.15 KiB (0%)
    Language                    : Spanish
    Default                     : Yes
    Forced                      : Yes

  • Peso: 2 GB X capitulo

Sinopsis

Treadstone era un programa de alto secreto de operaciones encubiertas que utilizaba diferentes formas de modificación del comportamiento humano y un entrenamiento extremo para convertir a los reclutas en armas casi sobrehumanas. Treadstone se creó como respuesta a una Ley del Congreso que prohibió los asesinatos, y se cerró oficialmente después de que Jason Bourne lo pusiera al descubierto. La serie comienza cuando la CIA se entera de que alguien está «despertando» a estos agentes en diferentes partes del mundo que formaban parte de un programa de Treadstone llamado «Cicada»

Ficha técnica

Video trailer de la película

Enlaces de descarga

Rip de Bluray

Descargar Treadstone: The Complete First Season (2019) [AMZN] WEB-DL 1080p Latino




Aportes de DPeliculasHDmega la pass es:dpeliculashdmega.org Aportes de CinemaniaHD la pass es:cinemaniahdd.com
Guardado en : Action & Adventure , Series

Películas relacionadas

descargar Treadstone: The Complete First Season (2019) [AMZN] WEB-DL 1080p Latino WEBDL 1080p gratis, Treadstone: The Complete First Season (2019) [AMZN] WEB-DL 1080p Latino WEBDL mega 1 link, Treadstone: The Complete First Season (2019) [AMZN] WEB-DL 1080p Latino WEBDL serie completa, descargar Treadstone: The Complete First Season (2019) [AMZN] WEB-DL 1080p Latino WEBDL gratis en mega.

Treadstone: The Complete First Season (2019) [AMZN] WEB-DL 1080p Latino pelicula full hd, Treadstone: The Complete First Season (2019) [AMZN] WEB-DL 1080p Latino mega latino, Treadstone: The Complete First Season (2019) [AMZN] WEB-DL 1080p Latino 4k latino, Treadstone: The Complete First Season (2019) [AMZN] WEB-DL 1080p Latino pelicula completa, Treadstone: The Complete First Season (2019) [AMZN] WEB-DL 1080p Latino descargar gratis, descargar Treadstone: The Complete First Season (2019) [AMZN] WEB-DL 1080p Latino pelicula latino, Treadstone: The Complete First Season (2019) [AMZN] WEB-DL 1080p Latino 1 link mega, Treadstone: The Complete First Season (2019) [AMZN] WEB-DL 1080p Latino 1 link google drive, Treadstone: The Complete First Season (2019) [AMZN] WEB-DL 1080p Latino hd 1080p latino.
Comentarios 1
  • danwil - 15 enero, 2020

    Mil gracias por subirla .. muy buena serie de accion y espionaje .. recomendable totalmente .. saludos y gracias a cinemaniahdd??