×

¿Problemas para descargar con Mozilla, EDGE? Deshabilita la opción "Abrir vinculos en una pestaña nueva" tal como lo muestra ésta imagen.

Travis Scott: Look Mom I Can Fly (2019) NF WEB-DL 1080p Subtitulado

1.015 vistas

Información de Travis Scott: Look Mom I Can Fly (2019) NF WEB-DL 1080p Subtitulado

AAAABQ1nnsT8Q5j5JA 9oWc5QBUaln JkT3vVCDiD3 KdLk0C6dxn5WsTT

Datos de la película

  • Calidad: WEBDL
  • Audio: Ingles AC3 5.1 Netflix
  • Subtitulos: Español Latino SRT
  • Resolución: 1920x1080
  • Formato: MKV
  • Codec: H.264
  • Encoder: cinemaniahdd
  • Mediainfo: Clic para Mostrar Datos Ver
  • Travis Scott - Look Mom I Can Fly (2019) NF WEB-DL 1080p Subtitulado.mkv
    Format                      : Matroska
    Format version              : Version 4
    File size                   : 3.55 GiB
    Duration                    : 1 h 25 min
    Overall bit rate mode       : Variable
    Overall bit rate            : 5 974 kb/s
    Movie name                  : Travis Scott - Look Mom I Can Fly (2019) - CinemaniaHDD.Net
    Encoded date                : UTC 2019-08-30 21:05:39
    Writing application         : mkvmerge v35.0.0 ('All The Love In The World') 64-bit
    Writing library             : libebml v1.3.9 + libmatroska v1.5.2

    Video
    ID                          : 1
    Format                      : AVC
    Format/Info                 : Advanced Video Codec
    Format profile              : High@L4
    Format settings             : CABAC / 4 Ref Frames
    Format settings, CABAC      : Yes
    Format settings, ReFrames   : 4 frames
    Codec ID                    : V_MPEG4/ISO/AVC
    Duration                    : 1 h 25 min
    Bit rate mode               : Variable
    Bit rate                    : 5 589 kb/s
    Maximum bit rate            : 20.0 Mb/s
    Width                       : 1 920 pixels
    Height                      : 1 080 pixels
    Display aspect ratio        : 16:9
    Frame rate mode             : Constant
    Frame rate                  : 23.976 (24000/1001) FPS
    Color space                 : YUV
    Chroma subsampling          : 4:2:0
    Bit depth                   : 8 bits
    Scan type                   : Progressive
    Bits/(Pixel*Frame)          : 0.112
    Stream size                 : 3.33 GiB (94%)
    Title                       : CinemaniaHDD
    Writing library             : x264 core 148 r2715 7e75228
    Encoding settings           : cabac=1 / ref=4 / deblock=1:0:0 / analyse=0x3:0x111 / me=umh / subme=10 / psy=1 / psy_rd=1.00:0.00 / mixed_ref=1 / me_range=120 / chroma_me=1 / trellis=2 / 8x8dct=1 / cqm=0 / deadzone=21,11 / fast_pskip=1 / chroma_qp_offset=-2 / threads=6 / lookahead_threads=1 / sliced_threads=0 / nr=0 / decimate=1 / interlaced=0 / bluray_compat=0 / stitchable=1 / constrained_intra=0 / bframes=16 / b_pyramid=2 / b_adapt=2 / b_bias=0 / direct=3 / weightb=1 / open_gop=0 / weightp=2 / keyint=240 / keyint_min=121 / scenecut=0 / intra_refresh=0 / rc_lookahead=240 / rc=crf / mbtree=1 / crf=24.0 / qcomp=0.50 / qpmin=6 / qpmax=51 / qpstep=4 / vbv_maxrate=20000 / vbv_bufsize=25000 / crf_max=0.0 / nal_hrd=vbr / filler=0 / ip_ratio=1.40 / aq=1:0.80
    Default                     : Yes
    Forced                      : No

    Audio
    ID                          : 2
    Format                      : AC-3
    Format/Info                 : Audio Coding 3
    Commercial name             : Dolby Digital
    Codec ID                    : A_AC3
    Duration                    : 1 h 25 min
    Bit rate mode               : Constant
    Bit rate                    : 384 kb/s
    Channel(s)                  : 6 channels
    Channel layout              : L R C LFE Ls Rs
    Sampling rate               : 48.0 kHz
    Frame rate                  : 31.250 FPS (1536 SPF)
    Bit depth                   : 16 bits
    Compression mode            : Lossy
    Stream size                 : 234 MiB (6%)
    Title                       : Ingles [CinemaniaHDD]
    Language                    : English
    Service kind                : Complete Main
    Default                     : No
    Forced                      : No

    Text #1
    ID                          : 3
    Format                      : UTF-8
    Codec ID                    : S_TEXT/UTF8
    Codec ID/Info               : UTF-8 Plain Text
    Duration                    : 1 h 24 min
    Bit rate                    : 60 b/s
    Count of elements           : 1108
    Stream size                 : 37.2 KiB (0%)
    Title                       : Español latino [CinemaniaHDD]
    Language                    : Spanish
    Default                     : Yes
    Forced                      : Yes

    Text #2
    ID                          : 4
    Format                      : UTF-8
    Codec ID                    : S_TEXT/UTF8
    Codec ID/Info               : UTF-8 Plain Text
    Duration                    : 1 h 18 min
    Bit rate                    : 14 b/s
    Count of elements           : 245
    Stream size                 : 8.39 KiB (0%)
    Title                       : Inglés [CinemaniaHDD]
    Language                    : English
    Default                     : No
    Forced                      : Yes

  • Peso: 3.55 GiB

Sinopsis

Mientras elabora su álbum nominado al Grammy «Astroworld», Travis Scott hace malabares con la controversia, la paternidad y los máximos de su carrera en este documental íntimo.

Ficha técnica

Video trailer de la película

Enlaces de descarga

Rip de Bluray

Descargar Travis Scott: Look Mom I Can Fly (2019) NF WEB-DL 1080p Subtitulado




Aportes de DPeliculasHDmega la pass es:dpeliculashdmega.org Aportes de CinemaniaHD la pass es:cinemaniahdd.com
Guardado en : Documental , Música

Películas relacionadas

  • Yo era famoso (2022) NF WEB-DL 1080p Latino

    Yo era famoso (2022) NF WEB-DL 1080p Latino

    2022
    Yo era famoso (2022) NF WEB-DL 1080p Latino

    1h 44m 2022

    Descargar Yo era famoso (2022) NF WEB-DL 1080p Latino. Vince, una ex estrella del pop desesperada que...

    Director: Júlia Gallart Sunyer

    Género: Comedia

    Actores: Racheal Ofori

  • WWE Evil (2022) Primera Temporada PCOK WEB-DL 1080p Latino

    WWE Evil (2022) Primera Temporada PCOK WEB-DL 1080p Latino

    2022
    WWE Evil (2022) Primera Temporada PCOK WEB-DL 1080p Latino

    0h 45m 2022

    Una "exposición psicológica" de las mentes de los antagonistas más diabólicos en la historia de la...

    Director: John Cena 約翰·希南 江西男,趙喜娜

    Género: Documental

    Actores: John Cena

  • Elvis (2022) HD 1080p Latino

    Elvis (2022) HD 1080p Latino

    2022
    Elvis (2022) HD 1080p Latino

    2h 39m 2022

    Descargar Elvis (2022) HD 1080p Latino. La película explora la vida y la música de Elvis Presley (Butler)...

    Director: Baz Luhrmann

    Género: Drama

    Actores: Yola

  • Elvis (2022) PLACEBO Full HD 1080p Latino

    Elvis (2022) PLACEBO Full HD 1080p Latino

    2022
    Elvis (2022) PLACEBO Full HD 1080p Latino

    2h 39m 2022

    Descargar Elvis (2022) PLACEBO Full HD 1080p Latino. La película explora la vida y la música de Elvis...

    Director: Baz Luhrmann

    Género: Drama

    Actores: Yola

descargar Travis Scott: Look Mom I Can Fly (2019) NF WEB-DL 1080p Subtitulado WEBDL 1080p gratis, Travis Scott: Look Mom I Can Fly (2019) NF WEB-DL 1080p Subtitulado WEBDL mega 1 link, Travis Scott: Look Mom I Can Fly (2019) NF WEB-DL 1080p Subtitulado WEBDL pelicula completa, descargar Travis Scott: Look Mom I Can Fly (2019) NF WEB-DL 1080p Subtitulado WEBDL gratis en mega.

Travis Scott: Look Mom I Can Fly (2019) NF WEB-DL 1080p Subtitulado pelicula full hd, Travis Scott: Look Mom I Can Fly (2019) NF WEB-DL 1080p Subtitulado mega latino, Travis Scott: Look Mom I Can Fly (2019) NF WEB-DL 1080p Subtitulado 4k latino, Travis Scott: Look Mom I Can Fly (2019) NF WEB-DL 1080p Subtitulado pelicula completa, Travis Scott: Look Mom I Can Fly (2019) NF WEB-DL 1080p Subtitulado descargar gratis, descargar Travis Scott: Look Mom I Can Fly (2019) NF WEB-DL 1080p Subtitulado pelicula latino, Travis Scott: Look Mom I Can Fly (2019) NF WEB-DL 1080p Subtitulado 1 link mega, Travis Scott: Look Mom I Can Fly (2019) NF WEB-DL 1080p Subtitulado 1 link google drive, Travis Scott: Look Mom I Can Fly (2019) NF WEB-DL 1080p Subtitulado hd 1080p latino.
Comentarios 0