×

¿Problemas para descargar con Mozilla, EDGE? Deshabilita la opción "Abrir vinculos en una pestaña nueva" tal como lo muestra ésta imagen.

Transfusion (2023) WEB-DL 4K UHD HDR Latino

375 vistas

Información de Transfusion (2023) WEB-DL 4K UHD HDR Latino

Datos de la película

  • Calidad: WEBDL
  • Audio: Español Latino AC3 2.0 WEB-DL - Ingles AC3 5.1 WEB-DL
  • Subtitulos: Español Latino SRT- FORZADOS SRT
  • Resolución: 3840x2160p
  • Formato: MKV
  • Codec: HEVC
  • Encoder: Melkor
  • Mediainfo: Clic para Mostrar Datos Ver
  • Transfusion (2023) WEB UHD HDR Latino.mkv Format                      : Matroska Format version              : Version 4 File size                   : 9.38 GiB Duration                    : 1 h 45 min Overall bit rate            : 12.7 Mb/s Movie name                  : Transfusion (2023) CinemaniaHDD.Net Encoded date                : UTC 2023-01-30 00:52:44 Writing application         : mkvmerge v56.1.0 ('My Friend') 64-bit Writing library             : libebml v1.4.2 + libmatroska v1.6.4 Attachments                 : CINEMANIAHD.png Video ID                          : 1 Format                      : HEVC Format/Info                 : High Efficiency Video Coding Format profile              : Main 10@L5@High HDR format                  : SMPTE ST 2086, HDR10 compatible Codec ID                    : V_MPEGH/ISO/HEVC Duration                    : 1 h 45 min Bit rate                    : 12.1 Mb/s Width                       : 3 840 pixels Height                      : 2 160 pixels Display aspect ratio        : 16:9 Frame rate mode             : Constant Frame rate                  : 24.000 FPS Color space                 : YUV Chroma subsampling          : 4:2:0 Bit depth                   : 10 bits Bits/(Pixel*Frame)          : 0.061 Stream size                 : 8.90 GiB (95%) Title                       : Web 2160p HDR [CinemaniaHDD] Default                     : Yes Forced                      : No Color range                 : Limited Color primaries             : BT.2020 Transfer characteristics    : PQ Matrix coefficients         : BT.2020 non-constant Mastering display color pri : BT.2020 Mastering display luminance : min: 0.0001 cd/m2, max: 1000 cd/m2 Audio #1 ID                          : 2 Format                      : AC-3 Format/Info                 : Audio Coding 3 Commercial name             : Dolby Digital Codec ID                    : A_AC3 Duration                    : 1 h 45 min Bit rate mode               : Constant Bit rate                    : 256 kb/s Channel(s)                  : 2 channels Channel layout              : L R Sampling rate               : 48.0 kHz Frame rate                  : 31.250 FPS (1536 SPF) Compression mode            : Lossy Stream size                 : 193 MiB (2%) Title                       : Español Latino [CinemaniaHDD] Language                    : Spanish Service kind                : Complete Main Default                     : Yes Forced                      : Yes Audio #2 ID                          : 3 Format                      : AC-3 Format/Info                 : Audio Coding 3 Commercial name             : Dolby Digital Codec ID                    : A_AC3 Duration                    : 1 h 45 min Bit rate mode               : Constant Bit rate                    : 384 kb/s Channel(s)                  : 6 channels Channel layout              : L R C LFE Ls Rs Sampling rate               : 48.0 kHz Frame rate                  : 31.250 FPS (1536 SPF) Compression mode            : Lossy Stream size                 : 290 MiB (3%) Title                       : Ingles [CinemaniaHDD] Language                    : English Service kind                : Complete Main Default                     : No Forced                      : No Text #1 ID                          : 4 Format                      : UTF-8 Codec ID                    : S_TEXT/UTF8 Codec ID/Info               : UTF-8 Plain Text Duration                    : 1 h 40 min Bit rate                    : 0 b/s Count of elements           : 8 Stream size                 : 206 Bytes (0%) Title                       : Forzados-SRT [CinemaniaHDD] Language                    : Spanish Default                     : Yes Forced                      : Yes Text #2 ID                          : 5 Format                      : UTF-8 Codec ID                    : S_TEXT/UTF8 Codec ID/Info               : UTF-8 Plain Text Duration                    : 1 h 42 min Bit rate                    : 31 b/s Count of elements           : 810 Stream size                 : 23.5 KiB (0%) Title                       : Español-SRT [CinemaniaHDD] Language                    : Spanish Default                     : No Forced                      : No Text #3 ID                          : 6 Format                      : UTF-8 Codec ID                    : S_TEXT/UTF8 Codec ID/Info               : UTF-8 Plain Text Duration                    : 1 h 37 min Bit rate                    : 43 b/s Count of elements           : 1258 Stream size                 : 30.7 KiB (0%) Title                       : Ingles-SRT [CinemaniaHDD] Language                    : English Default                     : No Forced                      : No
  • Peso: 9.38 GiB

Sinopsis

Descargar Transfusion (2023) WEB-DL 4K UHD HDR Latino. Un antiguo agente de las Fuerzas Especiales se ve empujado al submundo criminal para evitar que le arrebaten a su único hijo.

Ficha técnica

Video trailer de la película

Enlaces de descarga

Rip de Bluray

Descargar Transfusion (2023) WEB-DL 4K UHD HDR Latino




Aportes de DPeliculasHDmega la pass es:dpeliculashdmega.org Aportes de CinemaniaHD la pass es:cinemaniahdd.com Aportes recientes:cinemaniahdd.net
Guardado en : 4K HDR , 4K UHD , Crimen , Drama , Suspenso

Películas relacionadas

descargar Transfusion (2023) WEB-DL 4K UHD HDR Latino WEBDL 1080p gratis, Transfusion (2023) WEB-DL 4K UHD HDR Latino WEBDL mega 1 link, Transfusion (2023) WEB-DL 4K UHD HDR Latino WEBDL pelicula completa, descargar Transfusion (2023) WEB-DL 4K UHD HDR Latino WEBDL gratis en mega.

Transfusion (2023) WEB-DL 4K UHD HDR Latino pelicula full hd, Transfusion (2023) WEB-DL 4K UHD HDR Latino mega latino, Transfusion (2023) WEB-DL 4K UHD HDR Latino 4k latino, Transfusion (2023) WEB-DL 4K UHD HDR Latino pelicula completa, Transfusion (2023) WEB-DL 4K UHD HDR Latino descargar gratis, descargar Transfusion (2023) WEB-DL 4K UHD HDR Latino pelicula latino, Transfusion (2023) WEB-DL 4K UHD HDR Latino 1 link mega, Transfusion (2023) WEB-DL 4K UHD HDR Latino 1 link google drive, Transfusion (2023) WEB-DL 4K UHD HDR Latino hd 1080p latino.
Comentarios 0