×

¿Problemas para descargar con Mozilla, EDGE? Deshabilita la opción "Abrir vinculos en una pestaña nueva" tal como lo muestra ésta imagen.

Transformers – The Last Knight (2017) REMUX 4K HDR latino – CMHDD

82 vistas

Información de Transformers – The Last Knight (2017) REMUX 4K HDR latino – CMHDD

Datos de la película

  • Calidad: 4K HDR
  • Audio: Español Latino AC3 5.1 BLURAY - Ingles AC3 5.1 BLURAY
  • Subtitulos: Español Latino SRT- FORZADOS SRT
  • Resolución: 3840x2160p
  • Formato: MKV
  • Codec: H.264
  • Encoder: Dracarys
  • Mediainfo: Clic para Mostrar Datos Ver
  • Format                      : Matroska
    Format version              : Version 4
    File size                   : 80.7 GiB
    Duration                    : 2 h 34 min
    Overall bit rate mode       : Variable
    Overall bit rate            : 74.7 Mb/s
    Movie name                  : Transformers - The Last Knight (2017) REMUX 4K HDR latino - CMHDD
    Encoded date                : UTC 2024-04-12 19:25:33
    Writing application         : mkvmerge v47.0.0 ('Black Flag') 64-bit
    Writing library             : libebml v1.3.10 + libmatroska v1.5.2

    Video
    ID                          : 1
    ID in the original source m : 4113 (0x1011)
    Format                      : HEVC
    Format/Info                 : High Efficiency Video Coding
    Format profile              : Main 10@L5.1@High
    HDR format                  : SMPTE ST 2086, HDR10 compatible
    Codec ID                    : V_MPEGH/ISO/HEVC
    Duration                    : 2 h 34 min
    Bit rate                    : 69.0 Mb/s
    Width                       : 3 840 pixels
    Height                      : 2 160 pixels
    Display aspect ratio        : 16:9
    Frame rate mode             : Constant
    Frame rate                  : 23.976 (24000/1001) FPS
    Color space                 : YUV
    Chroma subsampling          : 4:2:0 (Type 2)
    Bit depth                   : 10 bits
    Bits/(Pixel*Frame)          : 0.347
    Stream size                 : 74.6 GiB (92%)
    Language                    : English
    Default                     : Yes
    Forced                      : No
    Color range                 : Limited
    Color primaries             : BT.2020
    Transfer characteristics    : PQ
    Matrix coefficients         : BT.2020 non-constant
    Mastering display color pri : Display P3
    Mastering display luminance : min: 0.0001 cd/m2, max: 1000 cd/m2
    Original source medium      : Blu-ray

    Audio #1
    ID                          : 2
    Format                      : AC-3
    Format/Info                 : Audio Coding 3
    Commercial name             : Dolby Digital
    Codec ID                    : A_AC3
    Duration                    : 2 h 34 min
    Bit rate mode               : Constant
    Bit rate                    : 640 kb/s
    Channel(s)                  : 6 channels
    Channel layout              : L R C LFE Ls Rs
    Sampling rate               : 48.0 kHz
    Frame rate                  : 31.250 FPS (1536 SPF)
    Compression mode            : Lossy
    Stream size                 : 708 MiB (1%)
    Language                    : Spanish
    Service kind                : Complete Main
    Default                     : Yes
    Forced                      : Yes

    Audio #2
    ID                          : 3
    ID in the original source m : 4352 (0x1100)
    Format                      : AC-3
    Format/Info                 : Audio Coding 3
    Commercial name             : Dolby Digital
    Format settings             : Dolby Surround EX
    Codec ID                    : A_AC3
    Duration                    : 2 h 34 min
    Bit rate mode               : Constant
    Bit rate                    : 640 kb/s
    Channel(s)                  : 6 channels
    Channel layout              : L R C LFE Ls Rs
    Sampling rate               : 48.0 kHz
    Frame rate                  : 31.250 FPS (1536 SPF)
    Compression mode            : Lossy
    Stream size                 : 708 MiB (1%)
    Language                    : English
    Service kind                : Complete Main
    Default                     : No
    Forced                      : No
    Original source medium      : Blu-ray

    Audio #3
    ID                          : 4
    ID in the original source m : 4352 (0x1100)
    Format                      : MLP FBA 16-ch
    Format/Info                 : Meridian Lossless Packing FBA with 16-channel presentation
    Commercial name             : Dolby TrueHD with Dolby Atmos
    Codec ID                    : A_TRUEHD
    Duration                    : 2 h 34 min
    Bit rate mode               : Variable
    Bit rate                    : 4 298 kb/s
    Maximum bit rate            : 6 528 kb/s
    Channel(s)                  : 8 channels
    Channel layout              : L R C LFE Ls Rs Lb Rb
    Sampling rate               : 48.0 kHz
    Frame rate                  : 1 200.000 FPS (40 SPF)
    Compression mode            : Lossless
    Stream size                 : 4.64 GiB (6%)
    Language                    : English
    Default                     : No
    Forced                      : No
    Original source medium      : Blu-ray
    Number of dynamic objects   : 11
    Bed channel count           : 1 channel
    Bed channel configuration   : LFE

    Text #1
    ID                          : 5
    Format                      : UTF-8
    Codec ID                    : S_TEXT/UTF8
    Codec ID/Info               : UTF-8 Plain Text
    Duration                    : 2 h 3 min
    Bit rate                    : 0 b/s
    Frame rate                  : 0.003 FPS
    Count of elements           : 23
    Stream size                 : 548 Bytes (0%)
    Title                       : Forzado
    Language                    : Spanish
    Default                     : Yes
    Forced                      : Yes

    Text #2
    ID                          : 6
    Format                      : UTF-8
    Codec ID                    : S_TEXT/UTF8
    Codec ID/Info               : UTF-8 Plain Text
    Duration                    : 2 h 25 min
    Bit rate                    : 62 b/s
    Frame rate                  : 0.262 FPS
    Count of elements           : 2288
    Stream size                 : 66.7 KiB (0%)
    Language                    : Spanish
    Default                     : No
    Forced                      : No

    Text #3
    ID                          : 7
    Format                      : PGS
    Muxing mode                 : zlib
    Codec ID                    : S_HDMV/PGS
    Codec ID/Info               : Picture based subtitle format used on BDs/HD-DVDs
    Duration                    : 2 h 3 min
    Bit rate                    : 988 b/s
    Frame rate                  : 0.006 FPS
    Count of elements           : 46
    Stream size                 : 891 KiB (0%)
    Title                       : Forzado
    Language                    : Spanish
    Default                     : No
    Forced                      : No

    Text #4
    ID                          : 8
    Format                      : PGS
    Muxing mode                 : zlib
    Codec ID                    : S_HDMV/PGS
    Codec ID/Info               : Picture based subtitle format used on BDs/HD-DVDs
    Duration                    : 2 h 25 min
    Bit rate                    : 37.1 kb/s
    Frame rate                  : 0.523 FPS
    Count of elements           : 4576
    Stream size                 : 38.7 MiB (0%)
    Language                    : Spanish
    Default                     : No
    Forced                      : No

    Menu
    00:00:00.000                : en:Chapter 01
    00:06:36.062                : en:Chapter 02
    00:14:03.467                : en:Chapter 03
    00:21:45.721                : en:Chapter 04
    00:27:53.213                : en:Chapter 05
    00:33:53.614                : en:Chapter 06
    00:40:08.614                : en:Chapter 07
    00:46:58.941                : en:Chapter 08
    00:53:25.785                : en:Chapter 09
    01:02:02.927                : en:Chapter 10
    01:08:47.081                : en:Chapter 11
    01:14:37.222                : en:Chapter 12
    01:20:10.180                : en:Chapter 13
    01:29:13.097                : en:Chapter 14
    01:37:59.498                : en:Chapter 15
    01:44:57.582                : en:Chapter 16
    01:51:15.210                : en:Chapter 17
    01:57:59.363                : en:Chapter 18
    02:06:09.728                : en:Chapter 19
    02:10:53.720                : en:Chapter 20
    02:16:01.153                : en:Chapter 21
    02:21:42.619                : en:Chapter 22
    02:25:17.291                : en:Chapter 23

     

  • Peso: 80.7 GiB

Sinopsis

Dos especies en guerra: una de carne y hueso, la otra de metal. El Último Caballero rompe con el mito original de la franquicia de Transformers y redefine lo que significa ser un héroe. Humanos y Transformers están en guerra y Optimus Prime se ha ido. La llave para salvar nuestro futuro está enterrada en los secretos del pasado, en la historia oculta de los Transformers en la Tierra. Salvar a nuestro mundo está en manos de una alianza única: Cade Yeager (Mark Wahlberg); Bumblebee; un Lord Inglés (Sir Anthony Hopkins); y una profesora de la Universidad de Oxford (Laura Haddock). Hay un momento en la vida de todo ser humano en la que recibimos el llamado para hacer la diferencia. En Transformers: El Último Caballero los perseguidos se convertirán en héroes; los héroes se convertirán en villanos y sólo un mundo sobrevivirá: el de ellos o el nuestro. Quinta película de Transformers dirigida por Michael Bay.

Ficha técnica

Video trailer de la película

Enlaces de descarga

Rip de Bluray

Descargar Transformers – The Last Knight (2017) REMUX 4K HDR latino – CMHDD




Aportes de DPeliculasHDmega la pass es:dpeliculashdmega.org Aportes de CinemaniaHD la pass es:cinemaniahdd.com Aportes recientes:cinemaniahdd.net
Guardado en : Acción , Aventura , Ciencia ficción

Películas relacionadas

  • The Shift (2023) AMZN WEB-DL 1080p Latino

    The Shift (2023) AMZN WEB-DL 1080p Latino

    2023
    The Shift (2023) AMZN WEB-DL 1080p Latino

    1h 53m 2023

    Descargar The Shift (2023) AMZN WEB-DL 1080p Latino. Kevin viaja a través de los mundos para reunirse...

    Director: Brock Heasley

    Género: Ciencia ficción

    Actores: Teck

  • Godzilla: Minus One (2023) 1080p SUB-CMHDD

    Godzilla: Minus One (2023) 1080p SUB-CMHDD

    2023
    Godzilla: Minus One (2023) 1080p SUB-CMHDD

    2h 5m 2023

    Descargar Godzilla: Minus One (2023) 1080p SUB-CMHDD. En el Japón de la posguerra surge un nuevo terror....

    Director: 山崎貴

    Género: Acción

    Actores: 鶴田翔

  • Kung Fu Panda 4 (2024) 1080p Latino-CMHDD

    Kung Fu Panda 4 (2024) 1080p Latino-CMHDD

    2024
    Kung Fu Panda 4 (2024) 1080p Latino-CMHDD

    1h 34m 2024

    Descargar Kung Fu Panda 4 (2024) 1080p Latino-CMHDD. Po se prepara para ser el líder espiritual del...

    Director: Stephanie Ma Stine

    Género: Acción

    Actores: Viola Davis

  • Kung Fu Panda 4 (2024) Full HD 1080p Latino-CMHDD

    Kung Fu Panda 4 (2024) Full HD 1080p Latino-CMHDD

    2024
    Kung Fu Panda 4 (2024) Full HD 1080p Latino-CMHDD

    1h 34m 2024

    Descargar Kung Fu Panda 4 (2024) Full HD 1080p Latino-CMHDD. Po se prepara para ser el líder espiritual...

    Director: Stephanie Ma Stine

    Género: Acción

    Actores: Viola Davis

  • Kung Fu Panda 4 (2024) REMUX 1080p Latino-CMHDD

    Kung Fu Panda 4 (2024) REMUX 1080p Latino-CMHDD

    2024
    Kung Fu Panda 4 (2024) REMUX 1080p Latino-CMHDD

    1h 34m 2024

    Descargar Kung Fu Panda 4 (2024) REMUX 1080p Latino-CMHDD. Po se prepara para ser el líder espiritual...

    Director: Stephanie Ma Stine

    Género: Acción

    Actores: Viola Davis

descargar Transformers – The Last Knight (2017) REMUX 4K HDR latino – CMHDD 4K HDR 1080p gratis, Transformers – The Last Knight (2017) REMUX 4K HDR latino – CMHDD 4K HDR mega 1 link, Transformers – The Last Knight (2017) REMUX 4K HDR latino – CMHDD 4K HDR pelicula completa, descargar Transformers – The Last Knight (2017) REMUX 4K HDR latino – CMHDD 4K HDR gratis en mega.

Transformers – The Last Knight (2017) REMUX 4K HDR latino – CMHDD pelicula full hd, Transformers – The Last Knight (2017) REMUX 4K HDR latino – CMHDD mega latino, Transformers – The Last Knight (2017) REMUX 4K HDR latino – CMHDD 4k latino, Transformers – The Last Knight (2017) REMUX 4K HDR latino – CMHDD pelicula completa, Transformers – The Last Knight (2017) REMUX 4K HDR latino – CMHDD descargar gratis, descargar Transformers – The Last Knight (2017) REMUX 4K HDR latino – CMHDD pelicula latino, Transformers – The Last Knight (2017) REMUX 4K HDR latino – CMHDD 1 link mega, Transformers – The Last Knight (2017) REMUX 4K HDR latino – CMHDD 1 link google drive, Transformers – The Last Knight (2017) REMUX 4K HDR latino – CMHDD hd 1080p latino.
Comentarios 0