×

¿Problemas para descargar con Mozilla, EDGE? Deshabilita la opción "Abrir vinculos en una pestaña nueva" tal como lo muestra ésta imagen.

Transformers – Revenge of the Fallen (2009) REMUX 4K HDR Latino – CMHDD

88 vistas

Información de Transformers – Revenge of the Fallen (2009) REMUX 4K HDR Latino – CMHDD

Datos de la película

  • Calidad: 4K HDR
  • Audio: Español Latino AC3 5.1 BLURAY - Ingles AC3 5.1 BLURAY
  • Subtitulos: Español Latino SRT- FORZADOS SRT
  • Resolución: 3840x2160p
  • Formato: MKV
  • Codec: H.264
  • Encoder: Dracarys
  • Mediainfo: Clic para Mostrar Datos Ver
  • Format                      : Matroska
    Format version              : Version 4
    File size                   : 76.5 GiB
    Duration                    : 2 h 29 min
    Overall bit rate mode       : Variable
    Overall bit rate            : 73.1 Mb/s
    Movie name                  : Transformers - Revenge of the Fallen (2009) REMUX 4K HDR Latino - CMHDD
    Encoded date                : UTC 2024-04-10 01:39:39
    Writing application         : mkvmerge v47.0.0 ('Black Flag') 64-bit
    Writing library             : libebml v1.3.10 + libmatroska v1.5.2

    Video
    ID                          : 1
    ID in the original source m : 4113 (0x1011)
    Format                      : HEVC
    Format/Info                 : High Efficiency Video Coding
    Format profile              : Main 10@L5.1@High
    HDR format                  : SMPTE ST 2086, HDR10 compatible
    Codec ID                    : V_MPEGH/ISO/HEVC
    Duration                    : 2 h 29 min
    Bit rate                    : 67.8 Mb/s
    Width                       : 3 840 pixels
    Height                      : 2 160 pixels
    Display aspect ratio        : 16:9
    Frame rate mode             : Constant
    Frame rate                  : 23.976 (24000/1001) FPS
    Color space                 : YUV
    Chroma subsampling          : 4:2:0 (Type 2)
    Bit depth                   : 10 bits
    Bits/(Pixel*Frame)          : 0.341
    Stream size                 : 71.0 GiB (93%)
    Language                    : English
    Default                     : Yes
    Forced                      : No
    Color range                 : Limited
    Color primaries             : BT.2020
    Transfer characteristics    : PQ
    Matrix coefficients         : BT.2020 non-constant
    Mastering display color pri : Display P3
    Mastering display luminance : min: 0.0001 cd/m2, max: 1000 cd/m2
    Original source medium      : Blu-ray

    Audio #1
    ID                          : 2
    Format                      : AC-3
    Format/Info                 : Audio Coding 3
    Commercial name             : Dolby Digital
    Codec ID                    : A_AC3
    Duration                    : 2 h 29 min
    Bit rate mode               : Constant
    Bit rate                    : 448 kb/s
    Channel(s)                  : 6 channels
    Channel layout              : L R C LFE Ls Rs
    Sampling rate               : 48.0 kHz
    Frame rate                  : 31.250 FPS (1536 SPF)
    Compression mode            : Lossy
    Stream size                 : 480 MiB (1%)
    Language                    : Spanish
    Service kind                : Complete Main
    Default                     : Yes
    Forced                      : Yes

    Audio #2
    ID                          : 3
    ID in the original source m : 4352 (0x1100)
    Format                      : AC-3
    Format/Info                 : Audio Coding 3
    Commercial name             : Dolby Digital
    Format settings             : Dolby Surround EX
    Codec ID                    : A_AC3
    Duration                    : 2 h 29 min
    Bit rate mode               : Constant
    Bit rate                    : 640 kb/s
    Channel(s)                  : 6 channels
    Channel layout              : L R C LFE Ls Rs
    Sampling rate               : 48.0 kHz
    Frame rate                  : 31.250 FPS (1536 SPF)
    Compression mode            : Lossy
    Stream size                 : 686 MiB (1%)
    Language                    : English
    Service kind                : Complete Main
    Default                     : No
    Forced                      : No
    Original source medium      : Blu-ray

    Audio #3
    ID                          : 4
    ID in the original source m : 4352 (0x1100)
    Format                      : MLP FBA 16-ch
    Format/Info                 : Meridian Lossless Packing FBA with 16-channel presentation
    Commercial name             : Dolby TrueHD with Dolby Atmos
    Codec ID                    : A_TRUEHD
    Duration                    : 2 h 29 min
    Bit rate mode               : Variable
    Bit rate                    : 4 147 kb/s
    Maximum bit rate            : 6 378 kb/s
    Channel(s)                  : 8 channels
    Channel layout              : L R C LFE Ls Rs Lb Rb
    Sampling rate               : 48.0 kHz
    Frame rate                  : 1 200.000 FPS (40 SPF)
    Compression mode            : Lossless
    Stream size                 : 4.34 GiB (6%)
    Language                    : English
    Default                     : No
    Forced                      : No
    Original source medium      : Blu-ray
    Number of dynamic objects   : 11
    Bed channel count           : 1 channel
    Bed channel configuration   : LFE

    Text #1
    ID                          : 5
    Format                      : UTF-8
    Codec ID                    : S_TEXT/UTF8
    Codec ID/Info               : UTF-8 Plain Text
    Duration                    : 1 h 58 min
    Bit rate                    : 0 b/s
    Frame rate                  : 0.002 FPS
    Count of elements           : 16
    Stream size                 : 527 Bytes (0%)
    Title                       : Forzado
    Language                    : Spanish
    Default                     : Yes
    Forced                      : Yes

    Text #2
    ID                          : 6
    Format                      : UTF-8
    Codec ID                    : S_TEXT/UTF8
    Codec ID/Info               : UTF-8 Plain Text
    Duration                    : 2 h 21 min
    Bit rate                    : 63 b/s
    Frame rate                  : 0.218 FPS
    Count of elements           : 1851
    Stream size                 : 66.4 KiB (0%)
    Language                    : Spanish
    Default                     : No
    Forced                      : No

    Text #3
    ID                          : 7
    Format                      : PGS
    Muxing mode                 : zlib
    Codec ID                    : S_HDMV/PGS
    Codec ID/Info               : Picture based subtitle format used on BDs/HD-DVDs
    Duration                    : 1 h 58 min
    Bit rate                    : 930 b/s
    Frame rate                  : 0.005 FPS
    Count of elements           : 32
    Stream size                 : 804 KiB (0%)
    Title                       : Forzado
    Language                    : Spanish
    Default                     : No
    Forced                      : No

    Text #4
    ID                          : 8
    Format                      : PGS
    Muxing mode                 : zlib
    Codec ID                    : S_HDMV/PGS
    Codec ID/Info               : Picture based subtitle format used on BDs/HD-DVDs
    Duration                    : 2 h 28 min
    Bit rate                    : 36.1 kb/s
    Frame rate                  : 0.415 FPS
    Count of elements           : 3704
    Stream size                 : 38.5 MiB (0%)
    Language                    : Spanish
    Default                     : No
    Forced                      : No

    Menu
    00:00:00.000                : en:Opening Sequence
    00:08:49.278                : en:Catching Up
    00:14:52.641                : en:Aftermath Of The Splinter
    00:18:17.846                : en:N.E.S.T. Command
    00:25:07.422                : en:Off To College
    00:33:00.520                : en:"You're Cheatin' Heart"
    00:37:07.558                : en:We Need You, Sam...
    00:43:33.652                : en:Baby Einstein
    00:54:56.334                : en:Forest Battle
    01:03:23.883                : en:Time To Reveal Ourselves
    01:12:25.883                : en:Mourning Optimus
    01:20:12.182                : en:The Smithsonian
    01:26:34.981                : en:Egypt
    01:35:41.152                : en:Vision Of The Past
    01:44:53.704                : en:Finding The Matrix
    01:50:34.419                : en:Beginning Of The End
    01:59:01.801                : en:"A Whole Lotta Fight Comin' Our Way"
    02:07:13.709                : en:Desert Battle
    02:15:05.305                : en:Sam's Destiny
    02:22:14.734                : en:Revenge On The Fallen

     

  • Peso: 76.5 GiB

Sinopsis

Dos años después de derrotar a los Decepticons, las vidas de Sam y los Autobots han cambiado mucho. Mientras Sam se prepara para ir a la universidad, sus amigos robots se han integrado en una fuerza de élite que captura a enemigos renegados. Pero todo cambia con la llegada de un malvado enemigo que, con un enrevesado plan, planea un nuevo alzamiento de los Decepticons. La humanidad vuelve a estar en peligro, y Sam y los Autobots tendrán que formar una vez más equipo para salvarla.

Ficha técnica

Video trailer de la película

Enlaces de descarga

Rip de Bluray

Descargar Transformers – Revenge of the Fallen (2009) REMUX 4K HDR Latino – CMHDD




Aportes de DPeliculasHDmega la pass es:dpeliculashdmega.org Aportes de CinemaniaHD la pass es:cinemaniahdd.com Aportes recientes:cinemaniahdd.net
Guardado en : Acción , Aventura , Ciencia ficción

Películas relacionadas

  • The Shift (2023) AMZN WEB-DL 1080p Latino

    The Shift (2023) AMZN WEB-DL 1080p Latino

    2023
    The Shift (2023) AMZN WEB-DL 1080p Latino

    1h 53m 2023

    Descargar The Shift (2023) AMZN WEB-DL 1080p Latino. Kevin viaja a través de los mundos para reunirse...

    Director: Brock Heasley

    Género: Ciencia ficción

    Actores: Teck

  • Godzilla: Minus One (2023) 1080p SUB-CMHDD

    Godzilla: Minus One (2023) 1080p SUB-CMHDD

    2023
    Godzilla: Minus One (2023) 1080p SUB-CMHDD

    2h 5m 2023

    Descargar Godzilla: Minus One (2023) 1080p SUB-CMHDD. En el Japón de la posguerra surge un nuevo terror....

    Director: 山崎貴

    Género: Acción

    Actores: 鶴田翔

  • Kung Fu Panda 4 (2024) 1080p Latino-CMHDD

    Kung Fu Panda 4 (2024) 1080p Latino-CMHDD

    2024
    Kung Fu Panda 4 (2024) 1080p Latino-CMHDD

    1h 34m 2024

    Descargar Kung Fu Panda 4 (2024) 1080p Latino-CMHDD. Po se prepara para ser el líder espiritual del...

    Director: Stephanie Ma Stine

    Género: Acción

    Actores: Viola Davis

  • Kung Fu Panda 4 (2024) Full HD 1080p Latino-CMHDD

    Kung Fu Panda 4 (2024) Full HD 1080p Latino-CMHDD

    2024
    Kung Fu Panda 4 (2024) Full HD 1080p Latino-CMHDD

    1h 34m 2024

    Descargar Kung Fu Panda 4 (2024) Full HD 1080p Latino-CMHDD. Po se prepara para ser el líder espiritual...

    Director: Stephanie Ma Stine

    Género: Acción

    Actores: Viola Davis

  • Kung Fu Panda 4 (2024) REMUX 1080p Latino-CMHDD

    Kung Fu Panda 4 (2024) REMUX 1080p Latino-CMHDD

    2024
    Kung Fu Panda 4 (2024) REMUX 1080p Latino-CMHDD

    1h 34m 2024

    Descargar Kung Fu Panda 4 (2024) REMUX 1080p Latino-CMHDD. Po se prepara para ser el líder espiritual...

    Director: Stephanie Ma Stine

    Género: Acción

    Actores: Viola Davis

descargar Transformers – Revenge of the Fallen (2009) REMUX 4K HDR Latino – CMHDD 4K HDR 1080p gratis, Transformers – Revenge of the Fallen (2009) REMUX 4K HDR Latino – CMHDD 4K HDR mega 1 link, Transformers – Revenge of the Fallen (2009) REMUX 4K HDR Latino – CMHDD 4K HDR pelicula completa, descargar Transformers – Revenge of the Fallen (2009) REMUX 4K HDR Latino – CMHDD 4K HDR gratis en mega.

Transformers – Revenge of the Fallen (2009) REMUX 4K HDR Latino – CMHDD pelicula full hd, Transformers – Revenge of the Fallen (2009) REMUX 4K HDR Latino – CMHDD mega latino, Transformers – Revenge of the Fallen (2009) REMUX 4K HDR Latino – CMHDD 4k latino, Transformers – Revenge of the Fallen (2009) REMUX 4K HDR Latino – CMHDD pelicula completa, Transformers – Revenge of the Fallen (2009) REMUX 4K HDR Latino – CMHDD descargar gratis, descargar Transformers – Revenge of the Fallen (2009) REMUX 4K HDR Latino – CMHDD pelicula latino, Transformers – Revenge of the Fallen (2009) REMUX 4K HDR Latino – CMHDD 1 link mega, Transformers – Revenge of the Fallen (2009) REMUX 4K HDR Latino – CMHDD 1 link google drive, Transformers – Revenge of the Fallen (2009) REMUX 4K HDR Latino – CMHDD hd 1080p latino.
Comentarios 0