×

¿Problemas para descargar con Mozilla, EDGE? Deshabilita la opción "Abrir vinculos en una pestaña nueva" tal como lo muestra ésta imagen.

Transformers la era de la extinción (2014) REMUX [IMAX] 1080p Latino

1.158 vistas

Información de Transformers la era de la extinción (2014) REMUX [IMAX] 1080p Latino

Datos de la película

  • Calidad: Full 1080p
  • Audio: Español Latino AC3 5.1 BLURAY - Ingles AC3 5.1 BLURAY
  • Subtitulos: Español Latino SRT- FORZADOS SRT
  • Resolución: 1920x1080p
  • Formato: MKV
  • Codec: H.264
  • Encoder: Dracarys
  • Mediainfo: Clic para Mostrar Datos Ver
  • extinción (2014) REMUX [IMAX] 1080p Latino.mkv
    Format                      : Matroska
    Format version              : Version 4
    File size                   : 26.8 GiB
    Duration                    : 2 h 45 min
    Overall bit rate mode       : Variable
    Overall bit rate            : 23.3 Mb/s
    Movie name                  : CinemaniaHDD.net
    Encoded date                : UTC 2019-10-10 23:01:00
    Writing application         : mkvmerge v38.0.0 ('The Silent Type') 64-bit
    Writing library             : libebml v1.3.9 + libmatroska v1.5.2

    Video
    ID                          : 1
    Format                      : AVC
    Format/Info                 : Advanced Video Codec
    Format profile              : High@L4.1
    Format settings             : CABAC / 3 Ref Frames
    Format settings, CABAC      : Yes
    Format settings, ReFrames   : 3 frames
    Codec ID                    : V_MPEG4/ISO/AVC
    Duration                    : 2 h 45 min
    Bit rate mode               : Variable
    Bit rate                    : 17.5 Mb/s
    Maximum bit rate            : 35.0 Mb/s
    Width                       : 1 920 pixels
    Height                      : 1 080 pixels
    Display aspect ratio        : 16:9
    Frame rate mode             : Constant
    Frame rate                  : 23.976 (24000/1001) FPS
    Color space                 : YUV
    Chroma subsampling          : 4:2:0
    Bit depth                   : 8 bits
    Scan type                   : Progressive
    Bits/(Pixel*Frame)          : 0.352
    Stream size                 : 20.2 GiB (75%)
    Default                     : No
    Forced                      : No

    Audio #1
    ID                          : 2
    Format                      : AC-3
    Format/Info                 : Audio Coding 3
    Commercial name             : Dolby Digital
    Codec ID                    : A_AC3
    Duration                    : 2 h 45 min
    Bit rate mode               : Constant
    Bit rate                    : 640 kb/s
    Channel(s)                  : 6 channels
    Channel layout              : L R C LFE Ls Rs
    Sampling rate               : 48.0 kHz
    Frame rate                  : 31.250 FPS (1536 SPF)
    Bit depth                   : 16 bits
    Compression mode            : Lossy
    Stream size                 : 756 MiB (3%)
    Language                    : Spanish
    Service kind                : Complete Main
    Default                     : Yes
    Forced                      : Yes

    Audio #2
    ID                          : 3
    Format                      : AC-3
    Format/Info                 : Audio Coding 3
    Commercial name             : Dolby Digital
    Codec ID                    : A_AC3
    Duration                    : 2 h 45 min
    Bit rate mode               : Constant
    Bit rate                    : 640 kb/s
    Channel(s)                  : 6 channels
    Channel layout              : L R C LFE Ls Rs
    Sampling rate               : 48.0 kHz
    Frame rate                  : 31.250 FPS (1536 SPF)
    Bit depth                   : 16 bits
    Compression mode            : Lossy
    Stream size                 : 756 MiB (3%)
    Language                    : English
    Service kind                : Complete Main
    Default                     : No
    Forced                      : No

    Audio #3
    ID                          : 4
    Format                      : MLP FBA 16-ch
    Format/Info                 : Meridian Lossless Packing FBA with 16-channel presentation
    Commercial name             : Dolby TrueHD with Dolby Atmos
    Codec ID                    : A_TRUEHD
    Duration                    : 2 h 45 min
    Bit rate mode               : Variable
    Bit rate                    : 4 388 kb/s
    Maximum bit rate            : 7 662 kb/s
    Channel(s)                  : 8 channels
    Channel layout              : L R C LFE Ls Rs Lb Rb
    Sampling rate               : 48.0 kHz
    Frame rate                  : 1 200.000 FPS (40 SPF)
    Compression mode            : Lossless
    Stream size                 : 5.06 GiB (19%)
    Language                    : English
    Default                     : No
    Forced                      : No
    Number of dynamic objects   : 11
    Bed channel count           : 1 channel
    Bed channel configuration   : LFE

    Text #1
    ID                          : 5
    Format                      : UTF-8
    Codec ID                    : S_TEXT/UTF8
    Codec ID/Info               : UTF-8 Plain Text
    Duration                    : 2 h 21 min
    Bit rate                    : 0 b/s
    Count of elements           : 19
    Stream size                 : 567 Bytes (0%)
    Language                    : Spanish
    Default                     : Yes
    Forced                      : Yes

    Text #2
    ID                          : 6
    Format                      : UTF-8
    Codec ID                    : S_TEXT/UTF8
    Codec ID/Info               : UTF-8 Plain Text
    Duration                    : 2 h 37 min
    Bit rate                    : 52 b/s
    Count of elements           : 1868
    Stream size                 : 60.1 KiB (0%)
    Language                    : Spanish
    Default                     : No
    Forced                      : No

    Text #3
    ID                          : 7
    Format                      : PGS
    Muxing mode                 : zlib
    Codec ID                    : S_HDMV/PGS
    Codec ID/Info               : Picture based subtitle format used on BDs/HD-DVDs
    Duration                    : 2 h 37 min
    Bit rate                    : 32.3 kb/s
    Count of elements           : 3736
    Stream size                 : 36.3 MiB (0%)
    Language                    : Spanish
    Default                     : No
    Forced                      : No

  • Peso: 26.8 GiB

Sinopsis

Han pasado 4 años desde la tragedia de Chicago y la humanidad sigue reparando los destrozos, pero tanto los Autobots como los Decepticons han desaparecido de la faz de la Tierra. Ahora el Gobierno de los Estados Unidos está utilizando la tecnología rescatada en el asedio de Chicago para desarrollar sus propios Transformers. Al frente del proyecto está Joshua Joyce (Stanley Tucci), un arrogante diseñador que piensa que los Autobots son «basura tecnológica» y se cree capaz de fabricar unos robots infinitamente más avanzados. Mientras tanto, Cade Yeager (Mark Wahlberg), un mécánico inventor, encuentra un Marmon semi-trailer. Al intentar repararlo, descubre que el camión no solo era un Transformer, sino también el mismísimo Optimus Prime, líder de los Autobots. Lo que Cade ignora son las consecuencias que pueden derivarse de este hallazgo.

Ficha técnica

Video trailer de la película

Enlaces de descarga

Rip de Bluray

Descargar Transformers la era de la extinción (2014) REMUX [IMAX] 1080p Latino




Aportes de DPeliculasHDmega la pass es:dpeliculashdmega.org Aportes de CinemaniaHD la pass es:cinemaniahdd.com
Guardado en : Acción , Aventura , Ciencia ficción , Remux

Películas relacionadas

descargar Transformers la era de la extinción (2014) REMUX [IMAX] 1080p Latino Full 1080p 1080p gratis, Transformers la era de la extinción (2014) REMUX [IMAX] 1080p Latino Full 1080p mega 1 link, Transformers la era de la extinción (2014) REMUX [IMAX] 1080p Latino Full 1080p pelicula completa, descargar Transformers la era de la extinción (2014) REMUX [IMAX] 1080p Latino Full 1080p gratis en mega.

Transformers la era de la extinción (2014) REMUX [IMAX] 1080p Latino pelicula full hd, Transformers la era de la extinción (2014) REMUX [IMAX] 1080p Latino mega latino, Transformers la era de la extinción (2014) REMUX [IMAX] 1080p Latino 4k latino, Transformers la era de la extinción (2014) REMUX [IMAX] 1080p Latino pelicula completa, Transformers la era de la extinción (2014) REMUX [IMAX] 1080p Latino descargar gratis, descargar Transformers la era de la extinción (2014) REMUX [IMAX] 1080p Latino pelicula latino, Transformers la era de la extinción (2014) REMUX [IMAX] 1080p Latino 1 link mega, Transformers la era de la extinción (2014) REMUX [IMAX] 1080p Latino 1 link google drive, Transformers la era de la extinción (2014) REMUX [IMAX] 1080p Latino hd 1080p latino.
Comentarios 1
  • Octavio Cesar posadas Martinez - 12 octubre, 2019

    Gracias por el BD Remux, saludos