×

¿Problemas para descargar con Mozilla, EDGE? Deshabilita la opción "Abrir vinculos en una pestaña nueva" tal como lo muestra ésta imagen.

Transformers el último caballero (2017) REMUX [IMAX] 1080p Latino

1.610 vistas

Información de Transformers el último caballero (2017) REMUX [IMAX] 1080p Latino

Datos de la película

  • Calidad: Full 1080p
  • Audio: Español Latino AC3 5.1 BLURAY - DTS-HD Master 7.1 BLURAY
  • Subtitulos: Español Latino SRT- FORZADOS SRT
  • Resolución: 1920x1080p
  • Formato: MKV
  • Codec: H.264
  • Encoder: Dracarys
  • Mediainfo: Clic para Mostrar Datos Ver
  • Format                      : Matroska
    Format version              : Version 4
    File size                   : 34.9 GiB
    Duration                    : 2 h 34 min
    Overall bit rate mode       : Variable
    Overall bit rate            : 32.3 Mb/s
    Movie name                  : CinemaniaHDD.net
    Encoded date                : UTC 2019-10-11 04:31:58
    Writing application         : mkvmerge v38.0.0 ('The Silent Type') 64-bit
    Writing library             : libebml v1.3.9 + libmatroska v1.5.2

    Video
    ID                          : 1
    Format                      : AVC
    Format/Info                 : Advanced Video Codec
    Format profile              : High@L4.1
    Format settings             : CABAC / 4 Ref Frames
    Format settings, CABAC      : Yes
    Format settings, ReFrames   : 4 frames
    Codec ID                    : V_MPEG4/ISO/AVC
    Duration                    : 2 h 34 min
    Bit rate mode               : Variable
    Bit rate                    : 27.6 Mb/s
    Maximum bit rate            : 31.0 Mb/s
    Width                       : 1 920 pixels
    Height                      : 1 080 pixels
    Display aspect ratio        : 16:9
    Frame rate mode             : Constant
    Frame rate                  : 23.976 (24000/1001) FPS
    Color space                 : YUV
    Chroma subsampling          : 4:2:0
    Bit depth                   : 8 bits
    Scan type                   : Progressive
    Bits/(Pixel*Frame)          : 0.556
    Stream size                 : 29.8 GiB (86%)
    Language                    : English
    Default                     : No
    Forced                      : No

    Audio #1
    ID                          : 2
    Format                      : AC-3
    Format/Info                 : Audio Coding 3
    Commercial name             : Dolby Digital
    Codec ID                    : A_AC3
    Duration                    : 2 h 34 min
    Bit rate mode               : Constant
    Bit rate                    : 640 kb/s
    Channel(s)                  : 6 channels
    Channel layout              : L R C LFE Ls Rs
    Sampling rate               : 48.0 kHz
    Frame rate                  : 31.250 FPS (1536 SPF)
    Bit depth                   : 16 bits
    Compression mode            : Lossy
    Stream size                 : 708 MiB (2%)
    Language                    : Spanish
    Service kind                : Complete Main
    Default                     : Yes
    Forced                      : Yes

    Audio #2
    ID                          : 3
    Format                      : DTS XLL
    Format/Info                 : Digital Theater Systems
    Commercial name             : DTS-HD Master Audio
    Codec ID                    : A_DTS
    Duration                    : 2 h 34 min
    Bit rate mode               : Variable
    Bit rate                    : 4 005 kb/s
    Channel(s)                  : 8 channels
    Channel layout              : C L R LFE Lb Rb Lss Rss
    Sampling rate               : 48.0 kHz
    Frame rate                  : 93.750 FPS (512 SPF)
    Bit depth                   : 24 bits
    Compression mode            : Lossless
    Stream size                 : 4.33 GiB (12%)
    Language                    : English
    Default                     : No
    Forced                      : No

    Text #1
    ID                          : 4
    Format                      : PGS
    Muxing mode                 : zlib
    Codec ID                    : S_HDMV/PGS
    Codec ID/Info               : Picture based subtitle format used on BDs/HD-DVDs
    Duration                    : 2 h 25 min
    Bit rate                    : 38.6 kb/s
    Count of elements           : 4576
    Stream size                 : 40.2 MiB (0%)
    Language                    : Spanish
    Default                     : No
    Forced                      : No

    Text #2
    ID                          : 5
    Format                      : PGS
    Muxing mode                 : zlib
    Codec ID                    : S_HDMV/PGS
    Codec ID/Info               : Picture based subtitle format used on BDs/HD-DVDs
    Duration                    : 2 h 3 min
    Bit rate                    : 463 b/s
    Count of elements           : 46
    Stream size                 : 418 KiB (0%)
    Language                    : Spanish
    Default                     : No
    Forced                      : No

    Text #3
    ID                          : 6
    Format                      : UTF-8
    Codec ID                    : S_TEXT/UTF8
    Codec ID/Info               : UTF-8 Plain Text
    Duration                    : 2 h 3 min
    Bit rate                    : 0 b/s
    Count of elements           : 23
    Stream size                 : 554 Bytes (0%)
    Language                    : Spanish
    Default                     : Yes
    Forced                      : Yes

    Text #4
    ID                          : 7
    Format                      : UTF-8
    Codec ID                    : S_TEXT/UTF8
    Codec ID/Info               : UTF-8 Plain Text
    Duration                    : 2 h 25 min
    Bit rate                    : 62 b/s
    Count of elements           : 2288
    Stream size                 : 66.4 KiB (0%)
    Language                    : Spanish
    Default                     : No
    Forced                      : No

  • Peso: 34.9 GiB

Sinopsis

Dos especies en guerra: una de carne y hueso, la otra de metal. El Último Caballero rompe con el mito original de la franquicia de Transformers y redefine lo que significa ser un héroe. Humanos y Transformers están en guerra y Optimus Prime se ha ido. La llave para salvar nuestro futuro está enterrada en los secretos del pasado, en la historia oculta de los Transformers en la Tierra. Salvar a nuestro mundo está en manos de una alianza única: Cade Yeager (Mark Wahlberg); Bumblebee; un Lord Inglés (Sir Anthony Hopkins); y una profesora de la Universidad de Oxford (Laura Haddock). Hay un momento en la vida de todo ser humano en la que recibimos el llamado para hacer la diferencia. En Transformers: El Último Caballero los perseguidos se convertirán en héroes; los héroes se convertirán en villanos y sólo un mundo sobrevivirá: el de ellos o el nuestro. Quinta película de Transformers dirigida por Michael Bay.

Ficha técnica

Video trailer de la película

Enlaces de descarga

Rip de Bluray

Descargar Transformers el último caballero (2017) REMUX [IMAX] 1080p Latino




Aportes de DPeliculasHDmega la pass es:dpeliculashdmega.org Aportes de CinemaniaHD la pass es:cinemaniahdd.com

Películas relacionadas

  • Wire Room (2022) HD 1080p Latino

    Wire Room (2022) HD 1080p Latino

    2022
    Wire Room (2022) HD 1080p Latino

    1h 37m 2022

    Descargar Wire Room (2022) HD 1080p Latino. Mientras está de servicio en la sala de cables, un agente...

    Director: Matt Eskandari

    Género: Acción

    Actores: Texas Battle

  • Wire Room (2022) PLACEBO Full HD 1080p Latino

    Wire Room (2022) PLACEBO Full HD 1080p Latino

    2022
    Wire Room (2022) PLACEBO Full HD 1080p Latino

    1h 37m 2022

    Descargar Wire Room (2022) PLACEBO Full HD 1080p Latino. Mientras está de servicio en la sala de cables,...

    Director: Matt Eskandari

    Género: Acción

    Actores: Texas Battle

  • Wire Room (2022) REMUX 1080p Latino

    Wire Room (2022) REMUX 1080p Latino

    2022
    Wire Room (2022) REMUX 1080p Latino

    1h 37m 2022

    Descargar Wire Room (2022) REMUX 1080p Latino. Mientras está de servicio en la sala de cables, un agente...

    Director: Matt Eskandari

    Género: Acción

    Actores: Texas Battle

  • Alarido (2022) HD 1080p Latino

    Alarido (2022) HD 1080p Latino

    2022
    Alarido (2022) HD 1080p Latino

    1h 29m 2022

    Descargar Alarido (2022) HD 1080p Latino. Una joven madre soltera es cautiva junto con sus dos hijos...

    Director: D.J. Caruso

    Género: HD 1080p

    Actores: Vincent Gallo

  • Alarido (2022) PLACEBO Full HD 1080p Latino

    Alarido (2022) PLACEBO Full HD 1080p Latino

    2022
    Alarido (2022) PLACEBO Full HD 1080p Latino

    1h 29m 2022

    Descargar Alarido (2022) PLACEBO Full HD 1080p Latino. Una joven madre soltera es cautiva junto con sus...

    Director: D.J. Caruso

    Género: FULL 1080p Plateadas

    Actores: Vincent Gallo

descargar Transformers el último caballero (2017) REMUX [IMAX] 1080p Latino Full 1080p 1080p gratis, Transformers el último caballero (2017) REMUX [IMAX] 1080p Latino Full 1080p mega 1 link, Transformers el último caballero (2017) REMUX [IMAX] 1080p Latino Full 1080p pelicula completa, descargar Transformers el último caballero (2017) REMUX [IMAX] 1080p Latino Full 1080p gratis en mega.

Transformers el último caballero (2017) REMUX [IMAX] 1080p Latino pelicula full hd, Transformers el último caballero (2017) REMUX [IMAX] 1080p Latino mega latino, Transformers el último caballero (2017) REMUX [IMAX] 1080p Latino 4k latino, Transformers el último caballero (2017) REMUX [IMAX] 1080p Latino pelicula completa, Transformers el último caballero (2017) REMUX [IMAX] 1080p Latino descargar gratis, descargar Transformers el último caballero (2017) REMUX [IMAX] 1080p Latino pelicula latino, Transformers el último caballero (2017) REMUX [IMAX] 1080p Latino 1 link mega, Transformers el último caballero (2017) REMUX [IMAX] 1080p Latino 1 link google drive, Transformers el último caballero (2017) REMUX [IMAX] 1080p Latino hd 1080p latino.
Comentarios 2
  • ocpgaiden - 29 octubre, 2020

    Gracias por resubir la colección de transformers remux, saludos

  • Octavio Cesar posadas Martinez - 12 octubre, 2019

    Gracias por todas peliculas de los transformes BDRemux, saludos