×

¿Problemas para descargar con Mozilla, EDGE? Deshabilita la opción "Abrir vinculos en una pestaña nueva" tal como lo muestra ésta imagen.

Transformers El lado oscuro de la luna (2011) REMUX 1080p Latino

1.090 vistas

Información de Transformers El lado oscuro de la luna (2011) REMUX 1080p Latino

Datos de la película

  • Calidad: Full 1080p
  • Audio: Español Latino AC3 5.1 BLURAY - Ingles DTS 5.1 BLURAY
  • Subtitulos: Español Latino SRT- FORZADOS SRT
  • Resolución: 1920x1080p
  • Formato: MKV
  • Codec: H.264
  • Encoder: Dracarys
  • Mediainfo: Clic para Mostrar Datos Ver
  • Format                      : Matroska
    Format version              : Version 4
    File size                   : 32.0 GiB
    Duration                    : 2 h 34 min
    Overall bit rate mode       : Variable
    Overall bit rate            : 29.7 Mb/s
    Movie name                  : CinemaniaHDD.net
    Encoded date                : UTC 2019-10-10 23:07:45
    Writing application         : mkvmerge v38.0.0 ('The Silent Type') 64-bit
    Writing library             : libebml v1.3.9 + libmatroska v1.5.2

    Video
    ID                          : 1
    Format                      : AVC
    Format/Info                 : Advanced Video Codec
    Format profile              : High@L4.1
    Format settings             : CABAC / 4 Ref Frames
    Format settings, CABAC      : Yes
    Format settings, ReFrames   : 4 frames
    Codec ID                    : V_MPEG4/ISO/AVC
    Duration                    : 2 h 34 min
    Bit rate mode               : Variable
    Bit rate                    : 27.5 Mb/s
    Maximum bit rate            : 34.0 Mb/s
    Width                       : 1 920 pixels
    Height                      : 1 080 pixels
    Display aspect ratio        : 16:9
    Frame rate mode             : Constant
    Frame rate                  : 23.976 (24000/1001) FPS
    Color space                 : YUV
    Chroma subsampling          : 4:2:0
    Bit depth                   : 8 bits
    Scan type                   : Progressive
    Bits/(Pixel*Frame)          : 0.553
    Stream size                 : 29.7 GiB (93%)
    Language                    : Spanish
    Default                     : Yes
    Forced                      : No

    Audio #1
    ID                          : 2
    Format                      : AC-3
    Format/Info                 : Audio Coding 3
    Commercial name             : Dolby Digital
    Codec ID                    : A_AC3
    Duration                    : 2 h 34 min
    Bit rate mode               : Constant
    Bit rate                    : 640 kb/s
    Channel(s)                  : 6 channels
    Channel layout              : L R C LFE Ls Rs
    Sampling rate               : 48.0 kHz
    Frame rate                  : 31.250 FPS (1536 SPF)
    Bit depth                   : 16 bits
    Compression mode            : Lossy
    Stream size                 : 707 MiB (2%)
    Language                    : Spanish
    Service kind                : Complete Main
    Default                     : Yes
    Forced                      : Yes

    Audio #2
    ID                          : 3
    Format                      : DTS
    Format/Info                 : Digital Theater Systems
    Codec ID                    : A_DTS
    Duration                    : 2 h 34 min
    Bit rate mode               : Constant
    Bit rate                    : 1 510 kb/s
    Channel(s)                  : 6 channels
    Channel layout              : C L R Ls Rs LFE
    Sampling rate               : 48.0 kHz
    Frame rate                  : 93.750 FPS (512 SPF)
    Bit depth                   : 24 bits
    Compression mode            : Lossy
    Stream size                 : 1.63 GiB (5%)
    Language                    : English
    Default                     : No
    Forced                      : No

    Text #1
    ID                          : 4
    Format                      : UTF-8
    Codec ID                    : S_TEXT/UTF8
    Codec ID/Info               : UTF-8 Plain Text
    Duration                    : 22 min 22 s
    Bit rate                    : 1 b/s
    Count of elements           : 8
    Stream size                 : 277 Bytes (0%)
    Language                    : Spanish
    Default                     : Yes
    Forced                      : Yes

    Text #2
    ID                          : 5
    Format                      : UTF-8
    Codec ID                    : S_TEXT/UTF8
    Codec ID/Info               : UTF-8 Plain Text
    Duration                    : 2 h 25 min
    Bit rate                    : 59 b/s
    Count of elements           : 1838
    Stream size                 : 63.9 KiB (0%)
    Language                    : Spanish
    Default                     : No
    Forced                      : No

    Text #3
    ID                          : 6
    Format                      : PGS
    Muxing mode                 : zlib
    Codec ID                    : S_HDMV/PGS
    Codec ID/Info               : Picture based subtitle format used on BDs/HD-DVDs
    Duration                    : 22 min 22 s
    Bit rate                    : 1 260 b/s
    Count of elements           : 16
    Stream size                 : 207 KiB (0%)
    Language                    : Spanish
    Default                     : No
    Forced                      : No

    Text #4
    ID                          : 7
    Format                      : PGS
    Muxing mode                 : zlib
    Codec ID                    : S_HDMV/PGS
    Codec ID/Info               : Picture based subtitle format used on BDs/HD-DVDs
    Duration                    : 2 h 25 min
    Bit rate                    : 36.7 kb/s
    Count of elements           : 3676
    Stream size                 : 38.3 MiB (0%)
    Language                    : Spanish
    Default                     : No
    Forced                      : No

  • Peso: 32.0 GiB

Sinopsis

En esta tercera entrega de la saga Transformers, los Autobots y los Decepticons se ven envueltos en una peligrosa carrera espacial en la Tierra entre los EE.UU. y Rusia, donde un acontecimiento amenaza con provocar una guerra tan grande que ni los propios transformers puede que sean capaces de salvar nuestro planeta. Y una vez más, como casi siempre, Sam Witwicky se encuentra involuntariamente en medio del conflicto.

Ficha técnica

Video trailer de la película

Enlaces de descarga

Rip de Bluray

Descargar Transformers El lado oscuro de la luna (2011) REMUX 1080p Latino




Aportes de DPeliculasHDmega la pass es:dpeliculashdmega.org Aportes de CinemaniaHD la pass es:cinemaniahdd.com
Guardado en : Acción , Aventura , Ciencia ficción , Remux

Películas relacionadas

  • Tren Bala (2022) WEB-DL 4K UHD HDR Latino

    Tren Bala (2022) WEB-DL 4K UHD HDR Latino

    2022
    Tren Bala (2022) WEB-DL 4K UHD HDR Latino

    2h 7m 2022

    Descargar Tren Bala (2022) WEB-DL 4K UHD HDR Latino. El desafortunado asesino "Catarina" está decidido...

    Director: Paul Barry

    Género: 4K HDR

    Actores: Zooey Miyoshi

  • Tren Bala (2022) AMZN WEB-DL 1080p Latino

    Tren Bala (2022) AMZN WEB-DL 1080p Latino

    2022
    Tren Bala (2022) AMZN WEB-DL 1080p Latino

    2h 7m 2022

    Descargar Tren Bala (2022) AMZN WEB-DL 1080p Latino. Cinco asesinos a sueldo se encuentran a bordo de...

    Director: Paul Barry

    Género: Acción

    Actores: Zooey Miyoshi

  • Athena (2022) NF WEB-DL 1080p Latino

    Athena (2022) NF WEB-DL 1080p Latino

    2022
    Athena (2022) NF WEB-DL 1080p Latino

    1h 37m 2022

    Descargar Athena (2022) NF WEB-DL 1080p Latino. Horas después de la trágica muerte de su hermano menor...

    Director: Romain Gavras

    Género: Acción

    Actores: Tarek Haddaji

  • Lou (2022) NF WEB-DL 1080p Latino

    Lou (2022) NF WEB-DL 1080p Latino

    2022
    Lou (2022) NF WEB-DL 1080p Latino

    1h 47m 2022

    Descargar Lou (2022) NF WEB-DL 1080p Latino. Una mujer misteriosa y solitaria lucha contra las inclemencias...

    Director: Anna Foerster

    Género: Acción

    Actores: Toby Levins

descargar Transformers El lado oscuro de la luna (2011) REMUX 1080p Latino Full 1080p 1080p gratis, Transformers El lado oscuro de la luna (2011) REMUX 1080p Latino Full 1080p mega 1 link, Transformers El lado oscuro de la luna (2011) REMUX 1080p Latino Full 1080p pelicula completa, descargar Transformers El lado oscuro de la luna (2011) REMUX 1080p Latino Full 1080p gratis en mega.

Transformers El lado oscuro de la luna (2011) REMUX 1080p Latino pelicula full hd, Transformers El lado oscuro de la luna (2011) REMUX 1080p Latino mega latino, Transformers El lado oscuro de la luna (2011) REMUX 1080p Latino 4k latino, Transformers El lado oscuro de la luna (2011) REMUX 1080p Latino pelicula completa, Transformers El lado oscuro de la luna (2011) REMUX 1080p Latino descargar gratis, descargar Transformers El lado oscuro de la luna (2011) REMUX 1080p Latino pelicula latino, Transformers El lado oscuro de la luna (2011) REMUX 1080p Latino 1 link mega, Transformers El lado oscuro de la luna (2011) REMUX 1080p Latino 1 link google drive, Transformers El lado oscuro de la luna (2011) REMUX 1080p Latino hd 1080p latino.
Comentarios 1
  • ocpgaiden - 29 octubre, 2020

    Gracias por transformers 3 remux, saludos