×

¿Problemas para descargar con Mozilla, EDGE? Deshabilita la opción "Abrir vinculos en una pestaña nueva" tal como lo muestra ésta imagen.

Transformers – Dark of the Moon (2011) REMUX 4K HDR Latino – CMHDD

88 vistas

Información de Transformers – Dark of the Moon (2011) REMUX 4K HDR Latino – CMHDD

Datos de la película

  • Calidad: 4K HDR
  • Audio: Español Latino AC3 5.1 BLURAY - Ingles AC3 5.1 BLURAY
  • Subtitulos: Español Latino SRT- FORZADOS SRT
  • Resolución: 3840x2160p
  • Formato: MKV
  • Codec: H.264
  • Encoder: Dracarys
  • Mediainfo: Clic para Mostrar Datos Ver
  • Format                      : Matroska
    Format version              : Version 4
    File size                   : 79.0 GiB
    Duration                    : 2 h 34 min
    Overall bit rate mode       : Variable
    Overall bit rate            : 73.2 Mb/s
    Movie name                  : Transformers - Dark of the Moon (2011) REMUX 4K HDR Latino - CMHDD
    Encoded date                : UTC 2024-04-11 18:32:40
    Writing application         : mkvmerge v47.0.0 ('Black Flag') 64-bit
    Writing library             : libebml v1.3.10 + libmatroska v1.5.2

    Video
    ID                          : 1
    ID in the original source m : 4113 (0x1011)
    Format                      : HEVC
    Format/Info                 : High Efficiency Video Coding
    Format profile              : Main 10@L5.1@High
    HDR format                  : SMPTE ST 2086, HDR10 compatible
    Codec ID                    : V_MPEGH/ISO/HEVC
    Duration                    : 2 h 34 min
    Bit rate                    : 67.5 Mb/s
    Width                       : 3 840 pixels
    Height                      : 2 160 pixels
    Display aspect ratio        : 16:9
    Frame rate mode             : Constant
    Frame rate                  : 23.976 (24000/1001) FPS
    Color space                 : YUV
    Chroma subsampling          : 4:2:0 (Type 2)
    Bit depth                   : 10 bits
    Bits/(Pixel*Frame)          : 0.339
    Stream size                 : 72.8 GiB (92%)
    Language                    : English
    Default                     : Yes
    Forced                      : No
    Color range                 : Limited
    Color primaries             : BT.2020
    Transfer characteristics    : PQ
    Matrix coefficients         : BT.2020 non-constant
    Mastering display color pri : Display P3
    Mastering display luminance : min: 0.0001 cd/m2, max: 1000 cd/m2
    Original source medium      : Blu-ray

    Audio #1
    ID                          : 2
    Format                      : AC-3
    Format/Info                 : Audio Coding 3
    Commercial name             : Dolby Digital
    Codec ID                    : A_AC3
    Duration                    : 2 h 34 min
    Bit rate mode               : Constant
    Bit rate                    : 640 kb/s
    Channel(s)                  : 6 channels
    Channel layout              : L R C LFE Ls Rs
    Sampling rate               : 48.0 kHz
    Frame rate                  : 31.250 FPS (1536 SPF)
    Compression mode            : Lossy
    Stream size                 : 707 MiB (1%)
    Language                    : Spanish
    Service kind                : Complete Main
    Default                     : Yes
    Forced                      : Yes

    Audio #2
    ID                          : 3
    ID in the original source m : 4352 (0x1100)
    Format                      : AC-3
    Format/Info                 : Audio Coding 3
    Commercial name             : Dolby Digital
    Format settings             : Dolby Surround EX
    Codec ID                    : A_AC3
    Duration                    : 2 h 34 min
    Bit rate mode               : Constant
    Bit rate                    : 640 kb/s
    Channel(s)                  : 6 channels
    Channel layout              : L R C LFE Ls Rs
    Sampling rate               : 48.0 kHz
    Frame rate                  : 31.250 FPS (1536 SPF)
    Compression mode            : Lossy
    Stream size                 : 707 MiB (1%)
    Language                    : English
    Service kind                : Complete Main
    Default                     : No
    Forced                      : No
    Original source medium      : Blu-ray

    Audio #3
    ID                          : 4
    ID in the original source m : 4352 (0x1100)
    Format                      : MLP FBA 16-ch
    Format/Info                 : Meridian Lossless Packing FBA with 16-channel presentation
    Commercial name             : Dolby TrueHD with Dolby Atmos
    Codec ID                    : A_TRUEHD
    Duration                    : 2 h 34 min
    Bit rate mode               : Variable
    Bit rate                    : 4 388 kb/s
    Maximum bit rate            : 6 510 kb/s
    Channel(s)                  : 8 channels
    Channel layout              : L R C LFE Ls Rs Lb Rb
    Sampling rate               : 48.0 kHz
    Frame rate                  : 1 200.000 FPS (40 SPF)
    Compression mode            : Lossless
    Stream size                 : 4.73 GiB (6%)
    Language                    : English
    Default                     : No
    Forced                      : No
    Original source medium      : Blu-ray
    Number of dynamic objects   : 11
    Bed channel count           : 1 channel
    Bed channel configuration   : LFE

    Text #1
    ID                          : 5
    Format                      : UTF-8
    Codec ID                    : S_TEXT/UTF8
    Codec ID/Info               : UTF-8 Plain Text
    Duration                    : 22 min 22 s
    Bit rate                    : 1 b/s
    Frame rate                  : 0.006 FPS
    Count of elements           : 8
    Stream size                 : 277 Bytes (0%)
    Title                       : Forzado
    Language                    : Spanish
    Default                     : Yes
    Forced                      : Yes

    Text #2
    ID                          : 6
    Format                      : UTF-8
    Codec ID                    : S_TEXT/UTF8
    Codec ID/Info               : UTF-8 Plain Text
    Duration                    : 2 h 25 min
    Bit rate                    : 59 b/s
    Frame rate                  : 0.210 FPS
    Count of elements           : 1838
    Stream size                 : 63.9 KiB (0%)
    Language                    : Spanish
    Default                     : No
    Forced                      : No

    Text #3
    ID                          : 7
    Format                      : PGS
    Muxing mode                 : zlib
    Codec ID                    : S_HDMV/PGS
    Codec ID/Info               : Picture based subtitle format used on BDs/HD-DVDs
    Duration                    : 22 min 22 s
    Bit rate                    : 2 684 b/s
    Frame rate                  : 0.012 FPS
    Count of elements           : 16
    Stream size                 : 440 KiB (0%)
    Title                       : Forzado
    Language                    : Spanish
    Default                     : No
    Forced                      : No

    Text #4
    ID                          : 8
    Format                      : PGS
    Muxing mode                 : zlib
    Codec ID                    : S_HDMV/PGS
    Codec ID/Info               : Picture based subtitle format used on BDs/HD-DVDs
    Duration                    : 2 h 33 min
    Bit rate                    : 35.9 kb/s
    Frame rate                  : 0.413 FPS
    Count of elements           : 3808
    Stream size                 : 39.5 MiB (0%)
    Language                    : Spanish
    Default                     : No
    Forced                      : No

    Menu
    00:00:00.000                : en:Battle For Cybertron/Apollo Conspiracy
    00:08:52.573                : en:Meeting Carly
    00:14:26.615                : en:Chernobyl
    00:20:20.928                : en:Interviews
    00:28:47.892                : en:Sentinel Prime
    00:36:18.634                : en:Day At Work
    00:45:18.257                : en:Resurrecting Sentinel
    00:51:53.026                : en:The Expert
    00:56:33.848                : en:Russian Cosmonauts
    01:04:13.307                : en:Soviet Secrets
    01:12:56.580                : en:Megatron Hatches Plan
    01:19:09.077                : en:Revealing Traitors
    01:23:41.307                : en:Autobots Exiled
    01:28:44.777                : en:Moving To The City
    01:35:13.082                : en:Gathering The Troops
    01:42:43.866                : en:Rescue Plan
    01:49:12.337                : en:Flying Squirrels
    01:56:42.912                : en:Shockwave
    02:04:59.116                : en:Battle In The City
    02:11:29.590                : en:"Aim For The Eyes!"
    02:19:10.884                : en:Closing Of Old Accounts
    02:25:37.186                : en:Finale/End Credits

     

  • Peso: 79.0 GiB

Sinopsis

En esta tercera entrega de la saga Transformers, los Autobots y los Decepticons se ven envueltos en una peligrosa carrera espacial en la Tierra entre los EE.UU. y Rusia, donde un acontecimiento amenaza con provocar una guerra tan grande que ni los propios transformers puede que sean capaces de salvar nuestro planeta. Y una vez más, como casi siempre, Sam Witwicky se encuentra involuntariamente en medio del conflicto.

Ficha técnica

Video trailer de la película

Enlaces de descarga

Rip de Bluray

Descargar Transformers – Dark of the Moon (2011) REMUX 4K HDR Latino – CMHDD




Aportes de DPeliculasHDmega la pass es:dpeliculashdmega.org Aportes de CinemaniaHD la pass es:cinemaniahdd.com Aportes recientes:cinemaniahdd.net
Guardado en : Acción , Aventura , Ciencia ficción

Películas relacionadas

  • The Shift (2023) AMZN WEB-DL 1080p Latino

    The Shift (2023) AMZN WEB-DL 1080p Latino

    2023
    The Shift (2023) AMZN WEB-DL 1080p Latino

    1h 53m 2023

    Descargar The Shift (2023) AMZN WEB-DL 1080p Latino. Kevin viaja a través de los mundos para reunirse...

    Director: Brock Heasley

    Género: Ciencia ficción

    Actores: Teck

  • Godzilla: Minus One (2023) 1080p SUB-CMHDD

    Godzilla: Minus One (2023) 1080p SUB-CMHDD

    2023
    Godzilla: Minus One (2023) 1080p SUB-CMHDD

    2h 5m 2023

    Descargar Godzilla: Minus One (2023) 1080p SUB-CMHDD. En el Japón de la posguerra surge un nuevo terror....

    Director: 山崎貴

    Género: Acción

    Actores: 鶴田翔

  • Kung Fu Panda 4 (2024) 1080p Latino-CMHDD

    Kung Fu Panda 4 (2024) 1080p Latino-CMHDD

    2024
    Kung Fu Panda 4 (2024) 1080p Latino-CMHDD

    1h 34m 2024

    Descargar Kung Fu Panda 4 (2024) 1080p Latino-CMHDD. Po se prepara para ser el líder espiritual del...

    Director: Stephanie Ma Stine

    Género: Acción

    Actores: Viola Davis

  • Kung Fu Panda 4 (2024) Full HD 1080p Latino-CMHDD

    Kung Fu Panda 4 (2024) Full HD 1080p Latino-CMHDD

    2024
    Kung Fu Panda 4 (2024) Full HD 1080p Latino-CMHDD

    1h 34m 2024

    Descargar Kung Fu Panda 4 (2024) Full HD 1080p Latino-CMHDD. Po se prepara para ser el líder espiritual...

    Director: Stephanie Ma Stine

    Género: Acción

    Actores: Viola Davis

  • Kung Fu Panda 4 (2024) REMUX 1080p Latino-CMHDD

    Kung Fu Panda 4 (2024) REMUX 1080p Latino-CMHDD

    2024
    Kung Fu Panda 4 (2024) REMUX 1080p Latino-CMHDD

    1h 34m 2024

    Descargar Kung Fu Panda 4 (2024) REMUX 1080p Latino-CMHDD. Po se prepara para ser el líder espiritual...

    Director: Stephanie Ma Stine

    Género: Acción

    Actores: Viola Davis

descargar Transformers – Dark of the Moon (2011) REMUX 4K HDR Latino – CMHDD 4K HDR 1080p gratis, Transformers – Dark of the Moon (2011) REMUX 4K HDR Latino – CMHDD 4K HDR mega 1 link, Transformers – Dark of the Moon (2011) REMUX 4K HDR Latino – CMHDD 4K HDR pelicula completa, descargar Transformers – Dark of the Moon (2011) REMUX 4K HDR Latino – CMHDD 4K HDR gratis en mega.

Transformers – Dark of the Moon (2011) REMUX 4K HDR Latino – CMHDD pelicula full hd, Transformers – Dark of the Moon (2011) REMUX 4K HDR Latino – CMHDD mega latino, Transformers – Dark of the Moon (2011) REMUX 4K HDR Latino – CMHDD 4k latino, Transformers – Dark of the Moon (2011) REMUX 4K HDR Latino – CMHDD pelicula completa, Transformers – Dark of the Moon (2011) REMUX 4K HDR Latino – CMHDD descargar gratis, descargar Transformers – Dark of the Moon (2011) REMUX 4K HDR Latino – CMHDD pelicula latino, Transformers – Dark of the Moon (2011) REMUX 4K HDR Latino – CMHDD 1 link mega, Transformers – Dark of the Moon (2011) REMUX 4K HDR Latino – CMHDD 1 link google drive, Transformers – Dark of the Moon (2011) REMUX 4K HDR Latino – CMHDD hd 1080p latino.
Comentarios 0