Transformers: El Lado Oscuro De La Luna (2011) 1080p Latino

10 vistas
1 estrella2 estrellas3 estrellas4 estrellas5 estrellas (Ninguna valoración todavía)
Cargando…

Información de Transformers: El Lado Oscuro De La Luna (2011) 1080p Latino

Datos de la película

  • Calidad: 1080p
  • Audio: Español Latino AC3 5.1 BLURAY - Ingles AC3 5.1 BLURAY
  • Subtitulos: Español Latino SRT - Ingles SRT
  • Resolución: 1920x800p
  • Formato: MKV
  • Codec: H.264
  • Encoder: CinefiloCool
  • Mediainfo: Clic para Mostrar Datos Ver
  • 3. Transformers El Lado Oscuro De La Luna (2011) 1080p Latino-CMHDD.mkv
    Format                      : Matroska
    Format version              : Version 4
    File size                   : 4.72 GiB
    Duration                    : 2 h 34 min
    Overall bit rate            : 4 374 kb/s
    Movie name                  : Transformers Dark Of The Moon (2011) CinemaniaHDD.Net
    Encoded date                : UTC 2020-08-02 00:26:20
    Writing application         : mkvmerge v46.0.0 ('No Deeper Escape') 64-bit
    Writing library             : libebml v1.3.10 + libmatroska v1.5.2
    Attachments                 : CINEMANIAHD.png

    Video
    ID                          : 1
    Format                      : AVC
    Format/Info                 : Advanced Video Codec
    Format profile              : High@L4.1
    Format settings             : CABAC / 5 Ref Frames
    Format settings, CABAC      : Yes
    Format settings, Reference  : 5 frames
    Codec ID                    : V_MPEG4/ISO/AVC
    Duration                    : 2 h 34 min
    Bit rate                    : 3 285 kb/s
    Width                       : 1 920 pixels
    Height                      : 800 pixels
    Display aspect ratio        : 2.40:1
    Frame rate mode             : Constant
    Frame rate                  : 23.976 (24000/1001) FPS
    Color space                 : YUV
    Chroma subsampling          : 4:2:0
    Bit depth                   : 8 bits
    Scan type                   : Progressive
    Bits/(Pixel*Frame)          : 0.089
    Stream size                 : 3.54 GiB (75%)
    Title                       : HD1080p [CinemaniaHDD]
    Writing library             : x264 core 150 r2833 df79067
    Encoding settings           : cabac=1 / ref=5 / deblock=1:-1:-1 / analyse=0x3:0x133 / me=umh / subme=9 / psy=1 / psy_rd=1.00:0.15 / mixed_ref=1 / me_range=24 / chroma_me=1 / trellis=2 / 8x8dct=1 / cqm=0 / deadzone=21,11 / fast_pskip=0 / chroma_qp_offset=-3 / threads=12 / lookahead_threads=1 / sliced_threads=0 / nr=200 / decimate=1 / interlaced=0 / bluray_compat=0 / constrained_intra=0 / bframes=3 / b_pyramid=2 / b_adapt=2 / b_bias=0 / direct=3 / weightb=1 / open_gop=0 / weightp=2 / keyint=250 / keyint_min=23 / scenecut=40 / intra_refresh=0 / rc_lookahead=60 / rc=2pass / mbtree=1 / bitrate=3285 / ratetol=1.0 / qcomp=0.60 / qpmin=0 / qpmax=69 / qpstep=4 / cplxblur=20.0 / qblur=0.5 / ip_ratio=1.40 / aq=1:1.00
    Language                    : English
    Default                     : Yes
    Forced                      : Yes

    Audio #1
    ID                          : 2
    Format                      : AC-3
    Format/Info                 : Audio Coding 3
    Commercial name             : Dolby Digital
    Codec ID                    : A_AC3
    Duration                    : 2 h 34 min
    Bit rate mode               : Constant
    Bit rate                    : 640 kb/s
    Channel(s)                  : 6 channels
    Channel layout              : L R C LFE Ls Rs
    Sampling rate               : 48.0 kHz
    Frame rate                  : 31.250 FPS (1536 SPF)
    Compression mode            : Lossy
    Stream size                 : 707 MiB (15%)
    Title                       : Español Latino [CinemaniaHDD]
    Language                    : Spanish
    Service kind                : Complete Main
    Default                     : Yes
    Forced                      : Yes

    Audio #2
    ID                          : 3
    Format                      : AC-3
    Format/Info                 : Audio Coding 3
    Commercial name             : Dolby Digital
    Codec ID                    : A_AC3
    Duration                    : 2 h 34 min
    Bit rate mode               : Constant
    Bit rate                    : 448 kb/s
    Channel(s)                  : 6 channels
    Channel layout              : L R C LFE Ls Rs
    Sampling rate               : 48.0 kHz
    Frame rate                  : 31.250 FPS (1536 SPF)
    Compression mode            : Lossy
    Stream size                 : 495 MiB (10%)
    Title                       : Ingles [CinemaniaHDD]
    Language                    : English
    Service kind                : Complete Main
    Default                     : No
    Forced                      : No

    Text #1
    ID                          : 4
    Format                      : UTF-8
    Codec ID                    : S_TEXT/UTF8
    Codec ID/Info               : UTF-8 Plain Text
    Duration                    : 1 h 9 min
    Bit rate                    : 0 b/s
    Count of elements           : 13
    Stream size                 : 388 Bytes (0%)
    Title                       : Forzados-SRT [CinemaniaHDD]
    Language                    : Spanish
    Default                     : Yes
    Forced                      : Yes

    Text #2
    ID                          : 5
    Format                      : UTF-8
    Codec ID                    : S_TEXT/UTF8
    Codec ID/Info               : UTF-8 Plain Text
    Duration                    : 2 h 25 min
    Bit rate                    : 59 b/s
    Count of elements           : 1838
    Stream size                 : 63.8 KiB (0%)
    Title                       : Español-SRT [CinemaniaHDD]
    Language                    : Spanish
    Default                     : No
    Forced                      : No

    Text #3
    ID                          : 6
    Format                      : UTF-8
    Codec ID                    : S_TEXT/UTF8
    Codec ID/Info               : UTF-8 Plain Text
    Duration                    : 2 h 29 min
    Bit rate                    : 71 b/s
    Count of elements           : 2329
    Stream size                 : 78.5 KiB (0%)
    Title                       : Ingles-SRT [CinemaniaHDD]
    Language                    : English
    Default                     : No
    Forced                      : No

    Menu
    00:00:00.000                : :Chapter 1
    00:08:52.574                : :Chapter 2
    00:14:26.616                : :Chapter 3
    00:20:20.928                : :Chapter 4
    00:28:48.143                : :Chapter 5
    00:36:18.635                : :Chapter 6
    00:45:18.549                : :Chapter 7
    00:51:53.027                : :Chapter 8
    00:56:34.224                : :Chapter 9
    01:04:13.308                : :Chapter 10
    01:12:56.706                : :Chapter 11
    01:19:09.078                : :Chapter 12
    01:23:41.391                : :Chapter 13
    01:28:44.820                : :Chapter 14
    01:35:13.082                : :Chapter 15
    01:42:44.158                : :Chapter 16
    01:49:12.337                : :Chapter 17
    01:56:42.913                : :Chapter 18
    02:04:59.117                : :Chapter 19
    02:11:29.590                : :Chapter 20
    02:19:10.884                : :Chapter 21
    02:25:37.520                : :Chapter 22

  • Peso: 4.72 GiB

Sinopsis

Descargar Transformers: El Lado Oscuro De La Luna (2011) 1080p Latino. En esta tercera entrega de la saga Transformers, los Autobots y los Decepticons se ven envueltos en una peligrosa carrera espacial en la Tierra entre los EE.UU. y Rusia, donde un acontecimiento amenaza con provocar una guerra tan grande que ni los propios transformers puede que sean capaces de salvar nuestro planeta. Y una vez más, como casi siempre, Sam Witwicky se encuentra involuntariamente en medio del conflicto.

Ficha técnica

Video trailer de la película

Enlaces de descarga

Rip de Bluray

Descargar Transformers: El Lado Oscuro De La Luna (2011) 1080p Latino




Aportes de DPeliculasHDmega la pass es:dpeliculashdmega.org Aportes de CinemaniaHD la pass es:cinemaniahdd.com

Películas relacionadas

  • The Hater (2020) HD 1080p Latino

    The Hater (2020) HD 1080p Latino

    2020
    The Hater (2020) HD 1080p Latino

    0.0 2h 15m 2020

    Descargar The Hater (2020) HD 1080p Latino. Narra las manipulaciones del maquiavélico Tomek para conseguir...

    Director: Jan Komasa

    Género: Drama

    Actores: Vanessa Aleksander

  • El Fanático (2019) HD 1080p Latino

    El Fanático (2019) HD 1080p Latino

    2019
    El Fanático (2019) HD 1080p Latino

    0.0 1h 28m 2019

    Descargar El Fanático (2019) HD 1080p Latino. Moose es un fanático del cine de acción que vive obsesionado...

    Director: Kimberley Roper

    Género: Crimen

    Actores: Rob Wolfe

  • El Silencio De Los Inocentes (1991) 1080p Latino

    El Silencio De Los Inocentes (1991) 1080p Latino

    1991
    El Silencio De Los Inocentes (1991) 1080p Latino

    0.0 1h 59m 1991

    Descargar El Silencio De Los Inocentes (1991) 1080p Latino. El FBI busca a "Buffalo Bill", un asesino...

    Director: Ronald M. Bozman

    Género: Crime

    Actores: Tracey Walter

  • Bolt (2008) HD 1080p Latino – CMHDD

    Bolt (2008) HD 1080p Latino – CMHDD

    2008
    Bolt (2008) HD 1080p Latino – CMHDD

    0.0 1h 36m 2008

    Para el super-perro Bolt todos los días están llenos de aventuras, peligros e intriga -al menos hasta...

    Director: William Otsuka

    Género: Animación

    Actores: Todd Cummings

  • Bolt (2008) Full HD 1080p Latino – CMHDD

    Bolt (2008) Full HD 1080p Latino – CMHDD

    2008
    Bolt (2008) Full HD 1080p Latino – CMHDD

    0.0 1h 36m 2008

    Para el super-perro Bolt todos los días están llenos de aventuras, peligros e intriga -al menos hasta...

    Director: William Otsuka

    Género: Animación

    Actores: Todd Cummings

Comentarios 0