×

¿Problemas para descargar con Mozilla, EDGE? Deshabilita la opción "Abrir vinculos en una pestaña nueva" tal como lo muestra ésta imagen.

Transformers – Age of Extinction (2014) REMUX 4K HDR Latino – CMHDD

84 vistas

Información de Transformers – Age of Extinction (2014) REMUX 4K HDR Latino – CMHDD

Datos de la película

  • Calidad: 4K HDR
  • Audio: Español Latino AC3 5.1 BLURAY - Ingles AC3 5.1 BLURAY
  • Subtitulos: Español Latino SRT- FORZADOS SRT
  • Resolución: 3840x2160p
  • Formato: MKV
  • Codec: H.264
  • Encoder: Dracarys
  • Mediainfo: Clic para Mostrar Datos Ver
  • Format                      : Matroska
    Format version              : Version 4
    File size                   : 81.6 GiB
    Duration                    : 2 h 45 min
    Overall bit rate mode       : Variable
    Overall bit rate            : 70.8 Mb/s
    Movie name                  : Transformers - Age of Extinction (2014) REMUX 4K HDR Latino - CMHDD
    Encoded date                : UTC 2024-04-11 18:47:15
    Writing application         : mkvmerge v47.0.0 ('Black Flag') 64-bit
    Writing library             : libebml v1.3.10 + libmatroska v1.5.2

    Video
    ID                          : 1
    ID in the original source m : 4113 (0x1011)
    Format                      : HEVC
    Format/Info                 : High Efficiency Video Coding
    Format profile              : Main 10@L5.1@High
    HDR format                  : SMPTE ST 2086, HDR10 compatible
    Codec ID                    : V_MPEGH/ISO/HEVC
    Duration                    : 2 h 45 min
    Bit rate                    : 64.4 Mb/s
    Width                       : 3 840 pixels
    Height                      : 2 160 pixels
    Display aspect ratio        : 16:9
    Frame rate mode             : Constant
    Frame rate                  : 23.976 (24000/1001) FPS
    Color space                 : YUV
    Chroma subsampling          : 4:2:0 (Type 2)
    Bit depth                   : 10 bits
    Bits/(Pixel*Frame)          : 0.324
    Stream size                 : 74.3 GiB (91%)
    Language                    : English
    Default                     : Yes
    Forced                      : No
    Color range                 : Limited
    Color primaries             : BT.2020
    Transfer characteristics    : PQ
    Matrix coefficients         : BT.2020 non-constant
    Mastering display color pri : Display P3
    Mastering display luminance : min: 0.0001 cd/m2, max: 1000 cd/m2
    Original source medium      : Blu-ray

    Audio #1
    ID                          : 2
    Format                      : AC-3
    Format/Info                 : Audio Coding 3
    Commercial name             : Dolby Digital
    Codec ID                    : A_AC3
    Duration                    : 2 h 45 min
    Bit rate mode               : Constant
    Bit rate                    : 640 kb/s
    Channel(s)                  : 6 channels
    Channel layout              : L R C LFE Ls Rs
    Sampling rate               : 48.0 kHz
    Frame rate                  : 31.250 FPS (1536 SPF)
    Compression mode            : Lossy
    Stream size                 : 756 MiB (1%)
    Language                    : Spanish
    Service kind                : Complete Main
    Default                     : Yes
    Forced                      : Yes

    Audio #2
    ID                          : 3
    ID in the original source m : 4352 (0x1100)
    Format                      : AC-3
    Format/Info                 : Audio Coding 3
    Commercial name             : Dolby Digital
    Format settings             : Dolby Surround EX
    Codec ID                    : A_AC3
    Duration                    : 2 h 45 min
    Bit rate mode               : Constant
    Bit rate                    : 640 kb/s
    Channel(s)                  : 6 channels
    Channel layout              : L R C LFE Ls Rs
    Sampling rate               : 48.0 kHz
    Frame rate                  : 31.250 FPS (1536 SPF)
    Compression mode            : Lossy
    Stream size                 : 756 MiB (1%)
    Language                    : English
    Service kind                : Complete Main
    Default                     : No
    Forced                      : No
    Original source medium      : Blu-ray

    Audio #3
    ID                          : 4
    ID in the original source m : 4352 (0x1100)
    Format                      : MLP FBA 16-ch
    Format/Info                 : Meridian Lossless Packing FBA with 16-channel presentation
    Commercial name             : Dolby TrueHD with Dolby Atmos
    Codec ID                    : A_TRUEHD
    Duration                    : 2 h 45 min
    Bit rate mode               : Variable
    Bit rate                    : 5 025 kb/s
    Maximum bit rate            : 8 262 kb/s
    Channel(s)                  : 8 channels
    Channel layout              : L R C LFE Ls Rs Lb Rb
    Sampling rate               : 48.0 kHz
    Frame rate                  : 1 200.000 FPS (40 SPF)
    Compression mode            : Lossless
    Stream size                 : 5.80 GiB (7%)
    Language                    : English
    Default                     : No
    Forced                      : No
    Original source medium      : Blu-ray
    Number of dynamic objects   : 11
    Bed channel count           : 1 channel
    Bed channel configuration   : LFE

    Text #1
    ID                          : 5
    Format                      : UTF-8
    Codec ID                    : S_TEXT/UTF8
    Codec ID/Info               : UTF-8 Plain Text
    Duration                    : 2 h 21 min
    Bit rate                    : 0 b/s
    Frame rate                  : 0.002 FPS
    Count of elements           : 19
    Stream size                 : 571 Bytes (0%)
    Title                       : Forzado
    Language                    : Spanish
    Default                     : Yes
    Forced                      : Yes

    Text #2
    ID                          : 6
    Format                      : UTF-8
    Codec ID                    : S_TEXT/UTF8
    Codec ID/Info               : UTF-8 Plain Text
    Duration                    : 2 h 37 min
    Bit rate                    : 52 b/s
    Frame rate                  : 0.198 FPS
    Count of elements           : 1868
    Stream size                 : 60.1 KiB (0%)
    Language                    : Spanish
    Default                     : No
    Forced                      : No

    Text #3
    ID                          : 7
    Format                      : PGS
    Muxing mode                 : zlib
    Codec ID                    : S_HDMV/PGS
    Codec ID/Info               : Picture based subtitle format used on BDs/HD-DVDs
    Duration                    : 2 h 21 min
    Bit rate                    : 891 b/s
    Frame rate                  : 0.004 FPS
    Count of elements           : 38
    Stream size                 : 927 KiB (0%)
    Title                       : Forzado
    Language                    : Spanish
    Default                     : No
    Forced                      : No

    Text #4
    ID                          : 8
    Format                      : PGS
    Muxing mode                 : zlib
    Codec ID                    : S_HDMV/PGS
    Codec ID/Info               : Picture based subtitle format used on BDs/HD-DVDs
    Duration                    : 2 h 43 min
    Bit rate                    : 32.6 kb/s
    Frame rate                  : 0.397 FPS
    Count of elements           : 3900
    Stream size                 : 38.2 MiB (0%)
    Language                    : Spanish
    Default                     : No
    Forced                      : No

    Menu
    00:00:00.000                : en:Actic Metal / Texas Metal
    00:06:51.577                : en:Daughter Issues / Father Issues
    00:14:33.581                : en:Ratchet's End
    00:21:37.212                : en:Optimus Awakens
    00:30:13.394                : en:Federal Agents
    00:38:45.990                : en:Optimus Unleashed
    00:46:07.848                : en:On The Road
    00:51:39.262                : en:Autobots United
    00:59:09.128                : en:KSI Headquarters
    01:07:48.522                : en:Discovery, Capture, Rescue
    01:15:14.510                : en:Enemies Emergent
    01:23:25.291                : en:Alien Ship Over Chicago
    01:29:14.724                : en:Onboard
    01:37:16.956                : en:Absconsion
    01:44:35.310                : en:Megatron's Machination
    01:51:24.678                : en:Galvatron Arises
    01:57:47.685                : en:Assassins' Pursuit
    02:04:48.230                : en:Prototypes Strike
    02:12:35.572                : en:Legendary Warriors
    02:21:03.997                : en:Magnetic Weapon
    02:28:48.461                : en:Lockdown Showdown
    02:37:09.461                : en:Credits

     

  • Peso: 81.6 GiB

Sinopsis

Han pasado 4 años desde la tragedia de Chicago y la humanidad sigue reparando los destrozos, pero tanto los Autobots como los Decepticons han desaparecido de la faz de la Tierra. Ahora el Gobierno de los Estados Unidos está utilizando la tecnología rescatada en el asedio de Chicago para desarrollar sus propios Transformers. Al frente del proyecto está Joshua Joyce, un arrogante diseñador que piensa que los Autobots son «basura tecnológica» y se cree capaz de fabricar unos robots infinitamente más avanzados. Mientras tanto, Cade Yeager, un mécánico inventor, encuentra un Marmon semi-trailer. Al intentar repararlo, descubre que el camión no solo era un Transformer, sino también el mismísimo Optimus Prime, líder de los Autobots. Lo que Cade ignora son las consecuencias que pueden derivarse de este hallazgo.

Ficha técnica

Video trailer de la película

Enlaces de descarga

Rip de Bluray

Descargar Transformers – Age of Extinction (2014) REMUX 4K HDR Latino – CMHDD




Aportes de DPeliculasHDmega la pass es:dpeliculashdmega.org Aportes de CinemaniaHD la pass es:cinemaniahdd.com Aportes recientes:cinemaniahdd.net
Guardado en : Acción , Aventura , Ciencia ficción

Películas relacionadas

  • The Shift (2023) AMZN WEB-DL 1080p Latino

    The Shift (2023) AMZN WEB-DL 1080p Latino

    2023
    The Shift (2023) AMZN WEB-DL 1080p Latino

    1h 53m 2023

    Descargar The Shift (2023) AMZN WEB-DL 1080p Latino. Kevin viaja a través de los mundos para reunirse...

    Director: Brock Heasley

    Género: Ciencia ficción

    Actores: Teck

  • Godzilla: Minus One (2023) 1080p SUB-CMHDD

    Godzilla: Minus One (2023) 1080p SUB-CMHDD

    2023
    Godzilla: Minus One (2023) 1080p SUB-CMHDD

    2h 5m 2023

    Descargar Godzilla: Minus One (2023) 1080p SUB-CMHDD. En el Japón de la posguerra surge un nuevo terror....

    Director: 山崎貴

    Género: Acción

    Actores: 鶴田翔

  • Kung Fu Panda 4 (2024) 1080p Latino-CMHDD

    Kung Fu Panda 4 (2024) 1080p Latino-CMHDD

    2024
    Kung Fu Panda 4 (2024) 1080p Latino-CMHDD

    1h 34m 2024

    Descargar Kung Fu Panda 4 (2024) 1080p Latino-CMHDD. Po se prepara para ser el líder espiritual del...

    Director: Stephanie Ma Stine

    Género: Acción

    Actores: Viola Davis

  • Kung Fu Panda 4 (2024) Full HD 1080p Latino-CMHDD

    Kung Fu Panda 4 (2024) Full HD 1080p Latino-CMHDD

    2024
    Kung Fu Panda 4 (2024) Full HD 1080p Latino-CMHDD

    1h 34m 2024

    Descargar Kung Fu Panda 4 (2024) Full HD 1080p Latino-CMHDD. Po se prepara para ser el líder espiritual...

    Director: Stephanie Ma Stine

    Género: Acción

    Actores: Viola Davis

  • Kung Fu Panda 4 (2024) REMUX 1080p Latino-CMHDD

    Kung Fu Panda 4 (2024) REMUX 1080p Latino-CMHDD

    2024
    Kung Fu Panda 4 (2024) REMUX 1080p Latino-CMHDD

    1h 34m 2024

    Descargar Kung Fu Panda 4 (2024) REMUX 1080p Latino-CMHDD. Po se prepara para ser el líder espiritual...

    Director: Stephanie Ma Stine

    Género: Acción

    Actores: Viola Davis

descargar Transformers – Age of Extinction (2014) REMUX 4K HDR Latino – CMHDD 4K HDR 1080p gratis, Transformers – Age of Extinction (2014) REMUX 4K HDR Latino – CMHDD 4K HDR mega 1 link, Transformers – Age of Extinction (2014) REMUX 4K HDR Latino – CMHDD 4K HDR pelicula completa, descargar Transformers – Age of Extinction (2014) REMUX 4K HDR Latino – CMHDD 4K HDR gratis en mega.

Transformers – Age of Extinction (2014) REMUX 4K HDR Latino – CMHDD pelicula full hd, Transformers – Age of Extinction (2014) REMUX 4K HDR Latino – CMHDD mega latino, Transformers – Age of Extinction (2014) REMUX 4K HDR Latino – CMHDD 4k latino, Transformers – Age of Extinction (2014) REMUX 4K HDR Latino – CMHDD pelicula completa, Transformers – Age of Extinction (2014) REMUX 4K HDR Latino – CMHDD descargar gratis, descargar Transformers – Age of Extinction (2014) REMUX 4K HDR Latino – CMHDD pelicula latino, Transformers – Age of Extinction (2014) REMUX 4K HDR Latino – CMHDD 1 link mega, Transformers – Age of Extinction (2014) REMUX 4K HDR Latino – CMHDD 1 link google drive, Transformers – Age of Extinction (2014) REMUX 4K HDR Latino – CMHDD hd 1080p latino.
Comentarios 0