×

¿Problemas para descargar con Mozilla, EDGE? Deshabilita la opción "Abrir vinculos en una pestaña nueva" tal como lo muestra ésta imagen.

Transformers (2007) REMUX 4K HDR Latino – CMHDD

88 vistas

Información de Transformers (2007) REMUX 4K HDR Latino – CMHDD

Datos de la película

  • Calidad: 4K HDR
  • Audio: Español Latino AC3 5.1 BLURAY - Ingles AC3 5.1 BLURAY
  • Subtitulos: Español Latino SRT- FORZADOS SRT
  • Resolución: 3840x2160p
  • Formato: MKV
  • Codec: H.264
  • Encoder: Dracarys
  • Mediainfo: Clic para Mostrar Datos Ver
  • Format                      : Matroska
    Format version              : Version 4
    File size                   : 74.6 GiB
    Duration                    : 2 h 23 min
    Overall bit rate mode       : Variable
    Overall bit rate            : 74.4 Mb/s
    Movie name                  : Transformers (2007) REMUX 4K HDR Latino - CMHDD
    Encoded date                : UTC 2024-04-10 01:33:42
    Writing application         : mkvmerge v47.0.0 ('Black Flag') 64-bit
    Writing library             : libebml v1.3.10 + libmatroska v1.5.2

    Video
    ID                          : 1
    ID in the original source m : 4113 (0x1011)
    Format                      : HEVC
    Format/Info                 : High Efficiency Video Coding
    Format profile              : Main 10@L5.1@High
    HDR format                  : SMPTE ST 2086, HDR10 compatible
    Codec ID                    : V_MPEGH/ISO/HEVC
    Duration                    : 2 h 23 min
    Bit rate                    : 69.0 Mb/s
    Width                       : 3 840 pixels
    Height                      : 2 160 pixels
    Display aspect ratio        : 16:9
    Frame rate mode             : Constant
    Frame rate                  : 23.976 (24000/1001) FPS
    Color space                 : YUV
    Chroma subsampling          : 4:2:0 (Type 2)
    Bit depth                   : 10 bits
    Bits/(Pixel*Frame)          : 0.347
    Stream size                 : 69.1 GiB (93%)
    Language                    : English
    Default                     : Yes
    Forced                      : No
    Color range                 : Limited
    Color primaries             : BT.2020
    Transfer characteristics    : PQ
    Matrix coefficients         : BT.2020 non-constant
    Mastering display color pri : Display P3
    Mastering display luminance : min: 0.0001 cd/m2, max: 1000 cd/m2
    Original source medium      : Blu-ray

    Audio #1
    ID                          : 2
    Format                      : AC-3
    Format/Info                 : Audio Coding 3
    Commercial name             : Dolby Digital
    Codec ID                    : A_AC3
    Duration                    : 2 h 23 min
    Bit rate mode               : Constant
    Bit rate                    : 640 kb/s
    Channel(s)                  : 6 channels
    Channel layout              : L R C LFE Ls Rs
    Sampling rate               : 48.0 kHz
    Frame rate                  : 31.250 FPS (1536 SPF)
    Compression mode            : Lossy
    Delay relative to video     : 12 ms
    Stream size                 : 657 MiB (1%)
    Language                    : Spanish
    Service kind                : Complete Main
    Default                     : Yes
    Forced                      : Yes

    Audio #2
    ID                          : 3
    ID in the original source m : 4352 (0x1100)
    Format                      : AC-3
    Format/Info                 : Audio Coding 3
    Commercial name             : Dolby Digital
    Format settings             : Dolby Surround EX
    Codec ID                    : A_AC3
    Duration                    : 2 h 23 min
    Bit rate mode               : Constant
    Bit rate                    : 640 kb/s
    Channel(s)                  : 6 channels
    Channel layout              : L R C LFE Ls Rs
    Sampling rate               : 48.0 kHz
    Frame rate                  : 31.250 FPS (1536 SPF)
    Compression mode            : Lossy
    Stream size                 : 657 MiB (1%)
    Language                    : English
    Service kind                : Complete Main
    Default                     : No
    Forced                      : No
    Original source medium      : Blu-ray

    Audio #3
    ID                          : 4
    ID in the original source m : 4352 (0x1100)
    Format                      : MLP FBA 16-ch
    Format/Info                 : Meridian Lossless Packing FBA with 16-channel presentation
    Commercial name             : Dolby TrueHD with Dolby Atmos
    Codec ID                    : A_TRUEHD
    Duration                    : 2 h 23 min
    Bit rate mode               : Variable
    Bit rate                    : 4 077 kb/s
    Maximum bit rate            : 6 768 kb/s
    Channel(s)                  : 8 channels
    Channel layout              : L R C LFE Ls Rs Lb Rb
    Sampling rate               : 48.0 kHz
    Frame rate                  : 1 200.000 FPS (40 SPF)
    Compression mode            : Lossless
    Stream size                 : 4.09 GiB (5%)
    Language                    : English
    Default                     : No
    Forced                      : No
    Original source medium      : Blu-ray
    Number of dynamic objects   : 11
    Bed channel count           : 1 channel
    Bed channel configuration   : LFE

    Text #1
    ID                          : 5
    Format                      : UTF-8
    Codec ID                    : S_TEXT/UTF8
    Codec ID/Info               : UTF-8 Plain Text
    Duration                    : 1 h 37 min
    Bit rate                    : 0 b/s
    Frame rate                  : 0.003 FPS
    Count of elements           : 18
    Stream size                 : 532 Bytes (0%)
    Title                       : Forzado
    Language                    : Spanish
    Default                     : Yes
    Forced                      : Yes

    Text #2
    ID                          : 6
    Format                      : UTF-8
    Codec ID                    : S_TEXT/UTF8
    Codec ID/Info               : UTF-8 Plain Text
    Duration                    : 2 h 15 min
    Bit rate                    : 55 b/s
    Frame rate                  : 0.210 FPS
    Count of elements           : 1702
    Stream size                 : 54.6 KiB (0%)
    Language                    : Spanish
    Default                     : No
    Forced                      : No

    Text #3
    ID                          : 7
    Format                      : PGS
    Muxing mode                 : zlib
    Codec ID                    : S_HDMV/PGS
    Codec ID/Info               : Picture based subtitle format used on BDs/HD-DVDs
    Duration                    : 1 h 37 min
    Bit rate                    : 1 241 b/s
    Frame rate                  : 0.006 FPS
    Count of elements           : 36
    Stream size                 : 887 KiB (0%)
    Title                       : Forzado
    Language                    : Spanish
    Default                     : No
    Forced                      : No

    Text #4
    ID                          : 8
    Format                      : PGS
    Muxing mode                 : zlib
    Codec ID                    : S_HDMV/PGS
    Codec ID/Info               : Picture based subtitle format used on BDs/HD-DVDs
    Duration                    : 2 h 22 min
    Bit rate                    : 29.5 kb/s
    Frame rate                  : 0.392 FPS
    Count of elements           : 3350
    Stream size                 : 30.1 MiB (0%)
    Language                    : Spanish
    Default                     : No
    Forced                      : No

    Menu
    00:00:00.000                : en:Titles and Intro
    00:02:03.915                : en:Raid At Qatar
    00:08:54.033                : en:Getting Chosen By A Car, school and funding
    00:15:33.098                : en:The Pentagon And Ladies Man
    00:22:20.881                : en:Driving With Mikaela
    00:27:41.910                : en:The Pentagon And Airforce One
    00:33:24.877                : en:A Car That Drives Off By Itself
    00:38:57.501                : en:Qatar, A Fight In The Desert
    00:45:13.419                : en:Hacker Glen Gets Shown Classifed
    00:51:45.685                : en:Sam And Mikaela get to know the car
    00:58:44.145                : en:New Arrivals From Space
    01:06:47.712                : en:Some Aspects Of The Artifact
    01:11:52.808                : en:Sam looking for the glasses
    01:16:55.944                : en:Sector Seven
    01:23:36.761                : en:Sector Seven Undies
    01:29:03.671                : en:The Glasses
    01:36:28.240                : en:Megatron, MBE 1, The Ice Man
    01:43:57.606                : en:Bumblebee And The All Spark
    01:49:45.245                : en:Leading The Decepticons To The Big City
    01:56:53.506                : en:Megatron In Full Flow
    02:03:09.256                : en:The Tow Gets Going
    02:10:43.418                : en:The Death Of Megatron
    02:15:01.802                : en:End Credits

     

  • Peso: 74.6 GiB

Sinopsis

Dos razas de robots extraterrestres transformables (los villanos «decepticons» y los amistosos «autobots») llegan a la Tierra en busca de una misteriosa fuente de poder. En la guerra que estalla entre las dos razas, los hombres toman partido por los «autobots». Sam Witwicky (Shia LaBeouf), un avispado adolescente, que sólo desea conquistar a la bella Mikaela (Megan Fox), se convierte en la clave de una guerra que puede destruir a la humanidad.

Ficha técnica

Video trailer de la película

Enlaces de descarga

Rip de Bluray

Descargar Transformers (2007) REMUX 4K HDR Latino – CMHDD




Aportes de DPeliculasHDmega la pass es:dpeliculashdmega.org Aportes de CinemaniaHD la pass es:cinemaniahdd.com Aportes recientes:cinemaniahdd.net
Guardado en : Acción , Aventura , Ciencia ficción

Películas relacionadas

  • The Shift (2023) AMZN WEB-DL 1080p Latino

    The Shift (2023) AMZN WEB-DL 1080p Latino

    2023
    The Shift (2023) AMZN WEB-DL 1080p Latino

    1h 53m 2023

    Descargar The Shift (2023) AMZN WEB-DL 1080p Latino. Kevin viaja a través de los mundos para reunirse...

    Director: Brock Heasley

    Género: Ciencia ficción

    Actores: Teck

  • Godzilla: Minus One (2023) 1080p SUB-CMHDD

    Godzilla: Minus One (2023) 1080p SUB-CMHDD

    2023
    Godzilla: Minus One (2023) 1080p SUB-CMHDD

    2h 5m 2023

    Descargar Godzilla: Minus One (2023) 1080p SUB-CMHDD. En el Japón de la posguerra surge un nuevo terror....

    Director: 山崎貴

    Género: Acción

    Actores: 鶴田翔

  • Kung Fu Panda 4 (2024) 1080p Latino-CMHDD

    Kung Fu Panda 4 (2024) 1080p Latino-CMHDD

    2024
    Kung Fu Panda 4 (2024) 1080p Latino-CMHDD

    1h 34m 2024

    Descargar Kung Fu Panda 4 (2024) 1080p Latino-CMHDD. Po se prepara para ser el líder espiritual del...

    Director: Stephanie Ma Stine

    Género: Acción

    Actores: Viola Davis

  • Kung Fu Panda 4 (2024) Full HD 1080p Latino-CMHDD

    Kung Fu Panda 4 (2024) Full HD 1080p Latino-CMHDD

    2024
    Kung Fu Panda 4 (2024) Full HD 1080p Latino-CMHDD

    1h 34m 2024

    Descargar Kung Fu Panda 4 (2024) Full HD 1080p Latino-CMHDD. Po se prepara para ser el líder espiritual...

    Director: Stephanie Ma Stine

    Género: Acción

    Actores: Viola Davis

  • Kung Fu Panda 4 (2024) REMUX 1080p Latino-CMHDD

    Kung Fu Panda 4 (2024) REMUX 1080p Latino-CMHDD

    2024
    Kung Fu Panda 4 (2024) REMUX 1080p Latino-CMHDD

    1h 34m 2024

    Descargar Kung Fu Panda 4 (2024) REMUX 1080p Latino-CMHDD. Po se prepara para ser el líder espiritual...

    Director: Stephanie Ma Stine

    Género: Acción

    Actores: Viola Davis

descargar Transformers (2007) REMUX 4K HDR Latino – CMHDD 4K HDR 1080p gratis, Transformers (2007) REMUX 4K HDR Latino – CMHDD 4K HDR mega 1 link, Transformers (2007) REMUX 4K HDR Latino – CMHDD 4K HDR pelicula completa, descargar Transformers (2007) REMUX 4K HDR Latino – CMHDD 4K HDR gratis en mega.

Transformers (2007) REMUX 4K HDR Latino – CMHDD pelicula full hd, Transformers (2007) REMUX 4K HDR Latino – CMHDD mega latino, Transformers (2007) REMUX 4K HDR Latino – CMHDD 4k latino, Transformers (2007) REMUX 4K HDR Latino – CMHDD pelicula completa, Transformers (2007) REMUX 4K HDR Latino – CMHDD descargar gratis, descargar Transformers (2007) REMUX 4K HDR Latino – CMHDD pelicula latino, Transformers (2007) REMUX 4K HDR Latino – CMHDD 1 link mega, Transformers (2007) REMUX 4K HDR Latino – CMHDD 1 link google drive, Transformers (2007) REMUX 4K HDR Latino – CMHDD hd 1080p latino.
Comentarios 0