Transformers (2007) 1080p Latino

11 vistas
1 estrella2 estrellas3 estrellas4 estrellas5 estrellas (Ninguna valoración todavía)
Cargando…

Información de Transformers (2007) 1080p Latino

Datos de la película

  • Calidad: 1080p
  • Audio: Español Latino AC3 5.1 BLURAY - Ingles AC3 5.1 BLURAY
  • Subtitulos: Español Latino SRT - Ingles SRT
  • Resolución: 1920x800p
  • Formato: MKV
  • Codec: H.264
  • Encoder: CinefiloCool
  • Mediainfo: Clic para Mostrar Datos Ver
  • 1. Transformers (2007) 1080p Latino-CMHDD.mkv
    Format                      : Matroska
    Format version              : Version 4
    File size                   : 4.44 GiB
    Duration                    : 2 h 23 min
    Overall bit rate            : 4 426 kb/s
    Movie name                  : Transformers (2007) CinemaniaHDD.Net
    Encoded date                : UTC 2020-08-01 23:21:41
    Writing application         : mkvmerge v46.0.0 ('No Deeper Escape') 64-bit
    Writing library             : libebml v1.3.10 + libmatroska v1.5.2
    Attachments                 : CINEMANIAHD.png

    Video
    ID                          : 1
    Format                      : AVC
    Format/Info                 : Advanced Video Codec
    Format profile              : High@L4.1
    Format settings             : CABAC / 5 Ref Frames
    Format settings, CABAC      : Yes
    Format settings, Reference  : 5 frames
    Codec ID                    : V_MPEG4/ISO/AVC
    Duration                    : 2 h 23 min
    Bit rate                    : 3 337 kb/s
    Width                       : 1 920 pixels
    Height                      : 800 pixels
    Display aspect ratio        : 2.40:1
    Frame rate mode             : Constant
    Frame rate                  : 23.976 (24000/1001) FPS
    Color space                 : YUV
    Chroma subsampling          : 4:2:0
    Bit depth                   : 8 bits
    Scan type                   : Progressive
    Bits/(Pixel*Frame)          : 0.091
    Stream size                 : 3.34 GiB (75%)
    Title                       : HD1080p [CinemaniaHDD]
    Writing library             : x264 core 150 r2833 df79067
    Encoding settings           : cabac=1 / ref=5 / deblock=1:-1:-1 / analyse=0x3:0x133 / me=umh / subme=9 / psy=1 / psy_rd=1.00:0.15 / mixed_ref=1 / me_range=24 / chroma_me=1 / trellis=2 / 8x8dct=1 / cqm=0 / deadzone=21,11 / fast_pskip=0 / chroma_qp_offset=-3 / threads=12 / lookahead_threads=1 / sliced_threads=0 / nr=200 / decimate=1 / interlaced=0 / bluray_compat=0 / constrained_intra=0 / bframes=3 / b_pyramid=2 / b_adapt=2 / b_bias=0 / direct=3 / weightb=1 / open_gop=0 / weightp=2 / keyint=250 / keyint_min=23 / scenecut=40 / intra_refresh=0 / rc_lookahead=60 / rc=2pass / mbtree=1 / bitrate=3337 / ratetol=1.0 / qcomp=0.60 / qpmin=0 / qpmax=69 / qpstep=4 / cplxblur=20.0 / qblur=0.5 / ip_ratio=1.40 / aq=1:1.00
    Language                    : English
    Default                     : Yes
    Forced                      : Yes

    Audio #1
    ID                          : 2
    Format                      : AC-3
    Format/Info                 : Audio Coding 3
    Commercial name             : Dolby Digital
    Codec ID                    : A_AC3
    Duration                    : 2 h 23 min
    Bit rate mode               : Constant
    Bit rate                    : 640 kb/s
    Channel(s)                  : 6 channels
    Channel layout              : L R C LFE Ls Rs
    Sampling rate               : 48.0 kHz
    Frame rate                  : 31.250 FPS (1536 SPF)
    Compression mode            : Lossy
    Stream size                 : 657 MiB (14%)
    Title                       : Español Latino [CinemaniaHDD]
    Language                    : Spanish
    Service kind                : Complete Main
    Default                     : Yes
    Forced                      : Yes

    Audio #2
    ID                          : 3
    Format                      : AC-3
    Format/Info                 : Audio Coding 3
    Commercial name             : Dolby Digital
    Codec ID                    : A_AC3
    Duration                    : 2 h 23 min
    Bit rate mode               : Constant
    Bit rate                    : 448 kb/s
    Channel(s)                  : 6 channels
    Channel layout              : L R C LFE Ls Rs
    Sampling rate               : 48.0 kHz
    Frame rate                  : 31.250 FPS (1536 SPF)
    Compression mode            : Lossy
    Stream size                 : 460 MiB (10%)
    Title                       : Ingles [CinemaniaHDD]
    Language                    : English
    Service kind                : Complete Main
    Default                     : No
    Forced                      : No

    Text #1
    ID                          : 4
    Format                      : UTF-8
    Codec ID                    : S_TEXT/UTF8
    Codec ID/Info               : UTF-8 Plain Text
    Duration                    : 1 h 50 min
    Bit rate                    : 1 b/s
    Count of elements           : 33
    Stream size                 : 900 Bytes (0%)
    Title                       : Forzados-SRT [CinemaniaHDD]
    Language                    : Spanish
    Default                     : Yes
    Forced                      : Yes

    Text #2
    ID                          : 5
    Format                      : UTF-8
    Codec ID                    : S_TEXT/UTF8
    Codec ID/Info               : UTF-8 Plain Text
    Duration                    : 2 h 15 min
    Bit rate                    : 55 b/s
    Count of elements           : 1702
    Stream size                 : 54.5 KiB (0%)
    Title                       : Español-SRT [CinemaniaHDD]
    Language                    : Spanish
    Default                     : No
    Forced                      : No

    Text #3
    ID                          : 6
    Format                      : UTF-8
    Codec ID                    : S_TEXT/UTF8
    Codec ID/Info               : UTF-8 Plain Text
    Duration                    : 2 h 15 min
    Bit rate                    : 71 b/s
    Count of elements           : 1837
    Stream size                 : 71.2 KiB (0%)
    Title                       : Ingles-SRT [CinemaniaHDD]
    Language                    : English
    Default                     : No
    Forced                      : No

    Menu
    00:00:00.000                : en:00:00:00.000
    00:02:04.708                : en:00:02:04.708
    00:08:54.534                : en:00:08:54.534
    00:15:33.641                : en:00:15:33.641
    00:22:21.382                : en:00:22:21.382
    00:27:42.661                : en:00:27:42.661
    00:33:25.378                : en:00:33:25.378
    00:38:58.002                : en:00:38:58.002
    00:45:13.920                : en:00:45:13.920
    00:51:46.437                : en:00:51:46.437
    00:58:44.688                : en:00:58:44.688
    01:06:48.421                : en:01:06:48.421
    01:11:53.559                : en:01:11:53.559
    01:16:56.445                : en:01:16:56.445
    01:23:37.346                : en:01:23:37.346
    01:29:04.172                : en:01:29:04.172
    01:36:28.741                : en:01:36:28.741
    01:43:58.107                : en:01:43:58.107
    01:49:45.746                : en:01:49:45.746
    01:56:54.007                : en:01:56:54.007
    02:03:09.882                : en:02:03:09.882
    02:10:43.919                : en:02:10:43.919
    02:15:02.303                : en:02:15:02.303

  • Peso: 4.44 GiB

Sinopsis

Descargar Transformers (2007) 1080p Latino. Dos razas de robots extraterrestres transformables (los villanos «decepticons» y los amistosos «autobots») llegan a la Tierra en busca de una misteriosa fuente de poder. En la guerra que estalla entre las dos razas, los hombres toman partido por los «autobots». Sam Witwicky (Shia LaBeouf), un avispado adolescente, que sólo desea conquistar a la bella Mikaela (Megan Fox), se convierte en la clave de una guerra que puede destruir a la humanidad.

Ficha técnica

Video trailer de la película

Enlaces de descarga

Rip de Bluray

Descargar Transformers (2007) 1080p Latino




Aportes de DPeliculasHDmega la pass es:dpeliculashdmega.org Aportes de CinemaniaHD la pass es:cinemaniahdd.com

Películas relacionadas

  • The Hater (2020) HD 1080p Latino

    The Hater (2020) HD 1080p Latino

    2020
    The Hater (2020) HD 1080p Latino

    0.0 2h 15m 2020

    Descargar The Hater (2020) HD 1080p Latino. Narra las manipulaciones del maquiavélico Tomek para conseguir...

    Director: Jan Komasa

    Género: Drama

    Actores: Vanessa Aleksander

  • El Fanático (2019) HD 1080p Latino

    El Fanático (2019) HD 1080p Latino

    2019
    El Fanático (2019) HD 1080p Latino

    0.0 1h 28m 2019

    Descargar El Fanático (2019) HD 1080p Latino. Moose es un fanático del cine de acción que vive obsesionado...

    Director: Kimberley Roper

    Género: Crimen

    Actores: Rob Wolfe

  • El Silencio De Los Inocentes (1991) 1080p Latino

    El Silencio De Los Inocentes (1991) 1080p Latino

    1991
    El Silencio De Los Inocentes (1991) 1080p Latino

    0.0 1h 59m 1991

    Descargar El Silencio De Los Inocentes (1991) 1080p Latino. El FBI busca a "Buffalo Bill", un asesino...

    Director: Ronald M. Bozman

    Género: Crime

    Actores: Tracey Walter

  • Bolt (2008) HD 1080p Latino – CMHDD

    Bolt (2008) HD 1080p Latino – CMHDD

    2008
    Bolt (2008) HD 1080p Latino – CMHDD

    0.0 1h 36m 2008

    Para el super-perro Bolt todos los días están llenos de aventuras, peligros e intriga -al menos hasta...

    Director: William Otsuka

    Género: Animación

    Actores: Todd Cummings

  • Bolt (2008) Full HD 1080p Latino – CMHDD

    Bolt (2008) Full HD 1080p Latino – CMHDD

    2008
    Bolt (2008) Full HD 1080p Latino – CMHDD

    0.0 1h 36m 2008

    Para el super-perro Bolt todos los días están llenos de aventuras, peligros e intriga -al menos hasta...

    Director: William Otsuka

    Género: Animación

    Actores: Todd Cummings

Comentarios 0