×

¿Problemas para descargar con Mozilla, EDGE? Deshabilita la opción "Abrir vinculos en una pestaña nueva" tal como lo muestra ésta imagen.

Trackers (2020) Temporada 1 AMZN WEB-DL 1080p Latino

514 vistas

Información de Trackers (2020) Temporada 1 AMZN WEB-DL 1080p Latino

Datos de la película

  • Calidad: WEBDL
  • Audio: Español Latino AC3 2.0 WEB-DL - Ingles AC3 5.1 WEB-DL
  • Subtitulos: Español Latino SRT- FORZADOS SRT
  • Resolución: 1920x1080
  • Formato: MKV
  • Codec: H.264
  • Encoder: cinemaniahdd
  • Mediainfo: Clic para Mostrar Datos Ver
  • Trackers T01E01 AMZN WEB-DL 1080p Latino [CNMNHDD].mkv
    Format                      : Matroska
    Format version              : Version 4
    File size                   : 4.02 GiB
    Duration                    : 54 min 47 s
    Overall bit rate            : 10.5 Mb/s
    Movie name                  : Trackers T01E01 - CinemaniaHDD.Net
    Encoded date                : UTC 2020-06-08 02:59:58
    Writing application         : mkvmerge v46.0.0 ('No Deeper Escape') 64-bit
    Writing library             : libebml v1.3.10 + libmatroska v1.5.2

    Video
    ID                          : 1
    Format                      : AVC
    Format/Info                 : Advanced Video Codec
    Format profile              : High@L4
    Format settings             : CABAC / 4 Ref Frames
    Format settings, CABAC      : Yes
    Format settings, Reference  : 4 frames
    Codec ID                    : V_MPEG4/ISO/AVC
    Duration                    : 54 min 45 s
    Bit rate mode               : Constant
    Bit rate                    : 10 000 kb/s
    Width                       : 1 920 pixels
    Height                      : 1 080 pixels
    Display aspect ratio        : 16:9
    Frame rate mode             : Constant
    Frame rate                  : 23.976 (24000/1001) FPS
    Color space                 : YUV
    Chroma subsampling          : 4:2:0
    Bit depth                   : 8 bits
    Scan type                   : Progressive
    Bits/(Pixel*Frame)          : 0.201
    Stream size                 : 3.68 GiB (91%)
    Title                       : CinemaniaHDD
    Default                     : Yes
    Forced                      : No
    Color range                 : Limited
    Color primaries             : BT.709
    Transfer characteristics    : BT.709
    Matrix coefficients         : BT.709

    Audio #1
    ID                          : 2
    Format                      : AC-3
    Format/Info                 : Audio Coding 3
    Commercial name             : Dolby Digital
    Codec ID                    : A_AC3
    Duration                    : 54 min 47 s
    Bit rate mode               : Constant
    Bit rate                    : 256 kb/s
    Channel(s)                  : 2 channels
    Channel layout              : L R
    Sampling rate               : 48.0 kHz
    Frame rate                  : 31.250 FPS (1536 SPF)
    Compression mode            : Lossy
    Delay relative to video     : -2 s 2 ms
    Stream size                 : 100 MiB (2%)
    Title                       : Español latino [CinemaniaHDD]
    Language                    : Spanish
    Service kind                : Complete Main
    Default                     : Yes
    Forced                      : No

    Audio #2
    ID                          : 3
    Format                      : E-AC-3
    Format/Info                 : Enhanced AC-3
    Commercial name             : Dolby Digital Plus
    Codec ID                    : A_EAC3
    Duration                    : 54 min 47 s
    Bit rate mode               : Constant
    Bit rate                    : 640 kb/s
    Channel(s)                  : 6 channels
    Channel layout              : L R C LFE Ls Rs
    Sampling rate               : 48.0 kHz
    Frame rate                  : 31.250 FPS (1536 SPF)
    Compression mode            : Lossy
    Delay relative to video     : -2 s 2 ms
    Stream size                 : 251 MiB (6%)
    Title                       : Inglés [CinemaniaHDD]
    Language                    : English
    Service kind                : Complete Main
    Default                     : No
    Forced                      : No

    Text #1
    ID                          : 4
    Format                      : UTF-8
    Codec ID                    : S_TEXT/UTF8
    Codec ID/Info               : UTF-8 Plain Text
    Duration                    : 51 min 37 s
    Bit rate                    : 0 b/s
    Count of elements           : 11
    Stream size                 : 312 Bytes (0%)
    Title                       : Forzados [CinemaniaHDD]
    Language                    : Spanish
    Default                     : Yes
    Forced                      : Yes

    Text #2
    ID                          : 5
    Format                      : UTF-8
    Codec ID                    : S_TEXT/UTF8
    Codec ID/Info               : UTF-8 Plain Text
    Duration                    : 52 min 55 s
    Bit rate                    : 37 b/s
    Count of elements           : 495
    Stream size                 : 14.5 KiB (0%)
    Title                       : Español latino [CinemaniaHDD]
    Language                    : Spanish
    Default                     : No
    Forced                      : No

    Text #3
    ID                          : 6
    Format                      : UTF-8
    Codec ID                    : S_TEXT/UTF8
    Codec ID/Info               : UTF-8 Plain Text
    Duration                    : 53 min 51 s
    Bit rate                    : 43 b/s
    Count of elements           : 697
    Stream size                 : 17.0 KiB (0%)
    Title                       : Inglés [CinemaniaHDD]
    Language                    : English
    Default                     : No
    Forced                      : No

     

  • Peso: 4.02 GiB C/U ---- 6 CAPITULOS AGREGADOS

Sinopsis

Un thriller lleno de acción que entrelaza tres historias en una conspiración violenta en Ciudad del Cabo que involucra al crimen organizado, la CIA, contrabando de diamantes y un complot terrorista internacional. Esta adaptación de la novela policiaca del aclamado autor Deon Meyer se filmó por completo en Sudáfrica.

6 CAPITULOS AGREGADOS

Ficha técnica

Video trailer de la película

Enlaces de descarga

Rip de Bluray

Descargar Trackers (2020) Temporada 1 AMZN WEB-DL 1080p Latino




Aportes de DPeliculasHDmega la pass es:dpeliculashdmega.org Aportes de CinemaniaHD la pass es:cinemaniahdd.com
Guardado en : Crimen , Drama , Series

Películas relacionadas

descargar Trackers (2020) Temporada 1 AMZN WEB-DL 1080p Latino WEBDL 1080p gratis, Trackers (2020) Temporada 1 AMZN WEB-DL 1080p Latino WEBDL mega 1 link, Trackers (2020) Temporada 1 AMZN WEB-DL 1080p Latino WEBDL serie completa, descargar Trackers (2020) Temporada 1 AMZN WEB-DL 1080p Latino WEBDL gratis en mega.

Trackers (2020) Temporada 1 AMZN WEB-DL 1080p Latino pelicula full hd, Trackers (2020) Temporada 1 AMZN WEB-DL 1080p Latino mega latino, Trackers (2020) Temporada 1 AMZN WEB-DL 1080p Latino 4k latino, Trackers (2020) Temporada 1 AMZN WEB-DL 1080p Latino pelicula completa, Trackers (2020) Temporada 1 AMZN WEB-DL 1080p Latino descargar gratis, descargar Trackers (2020) Temporada 1 AMZN WEB-DL 1080p Latino pelicula latino, Trackers (2020) Temporada 1 AMZN WEB-DL 1080p Latino 1 link mega, Trackers (2020) Temporada 1 AMZN WEB-DL 1080p Latino 1 link google drive, Trackers (2020) Temporada 1 AMZN WEB-DL 1080p Latino hd 1080p latino.
Comentarios 0