×

¿Problemas para descargar con Mozilla, EDGE? Deshabilita la opción "Abrir vinculos en una pestaña nueva" tal como lo muestra ésta imagen.

Toy Story 3 (2010) REMUX 4K HDR Latino – CMHDD

165 vistas

Información de Toy Story 3 (2010) REMUX 4K HDR Latino – CMHDD

Datos de la película

  • Calidad: 4K HDR
  • Audio: Se especifica abajo de la Sinopsis
  • Subtitulos: Español Latino PGS
  • Resolución: 3840x2160p
  • Formato: MKV
  • Codec: H.264
  • Encoder: Dracarys
  • Mediainfo: Clic para Mostrar Datos Ver
  • Format                      : Matroska
    Format version              : Version 4
    File size                   : 36.2 GiB
    Duration                    : 1 h 43 min
    Overall bit rate mode       : Variable
    Overall bit rate            : 50.3 Mb/s
    Movie name                  : Toy Story 3 (2010) REMUX 4K HDR Latino - CMHDD
    Encoded date                : UTC 2022-05-04 18:49:38
    Writing application         : mkvmerge v17.0.0 ('Be Ur Friend') 64-bit
    Writing library             : libebml v1.3.5 + libmatroska v1.4.8

    Video
    ID                          : 1
    Format                      : HEVC
    Format/Info                 : High Efficiency Video Coding
    Format profile              : Main 10@L5.1@High
    HDR format                  : SMPTE ST 2086, HDR10 compatible
    Codec ID                    : V_MPEGH/ISO/HEVC
    Duration                    : 1 h 43 min
    Bit rate                    : 40.5 Mb/s
    Width                       : 3 840 pixels
    Height                      : 2 160 pixels
    Display aspect ratio        : 16:9
    Frame rate mode             : Constant
    Frame rate                  : 23.976 (23976/1000) FPS
    Original frame rate         : 23.976 (24000/1001) FPS
    Color space                 : YUV
    Chroma subsampling          : 4:2:0 (Type 2)
    Bit depth                   : 10 bits
    Bits/(Pixel*Frame)          : 0.204
    Stream size                 : 29.2 GiB (81%)
    Writing library             : ATEME Titan File 3.9.0 (4.9.0.0)        
    Default                     : Yes
    Forced                      : No
    Color range                 : Limited
    Color primaries             : BT.2020
    Transfer characteristics    : PQ
    Matrix coefficients         : BT.2020 non-constant
    Mastering display color pri : Display P3
    Mastering display luminance : min: 0.0000 cd/m2, max: 1000 cd/m2

    Audio #1
    ID                          : 2
    Format                      : MLP FBA 16-ch
    Format/Info                 : Meridian Lossless Packing FBA with 16-channel presentation
    Commercial name             : Dolby TrueHD with Dolby Atmos
    Codec ID                    : A_TRUEHD
    Duration                    : 1 h 43 min
    Bit rate mode               : Variable
    Bit rate                    : 7 401 kb/s
    Maximum bit rate            : 8 814 kb/s
    Channel(s)                  : 8 channels
    Channel layout              : L R C LFE Ls Rs Lb Rb
    Sampling rate               : 48.0 kHz
    Frame rate                  : 1 200.000 FPS (40 SPF)
    Compression mode            : Lossless
    Delay relative to video     : 32 ms
    Stream size                 : 5.33 GiB (15%)
    Language                    : English
    Default                     : No
    Forced                      : No
    Number of dynamic objects   : 13
    Bed channel count           : 1 channel
    Bed channel configuration   : LFE

    Audio #2
    ID                          : 3
    Format                      : AC-3
    Format/Info                 : Audio Coding 3
    Commercial name             : Dolby Digital
    Format settings             : Dolby Surround EX
    Codec ID                    : A_AC3
    Duration                    : 1 h 43 min
    Bit rate mode               : Constant
    Bit rate                    : 640 kb/s
    Channel(s)                  : 6 channels
    Channel layout              : L R C LFE Ls Rs
    Sampling rate               : 48.0 kHz
    Frame rate                  : 31.250 FPS (1536 SPF)
    Compression mode            : Lossy
    Delay relative to video     : 31 ms
    Stream size                 : 472 MiB (1%)
    Language                    : English
    Service kind                : Complete Main
    Default                     : No
    Forced                      : No

    Audio #3
    ID                          : 4
    Format                      : E-AC-3
    Format/Info                 : Enhanced AC-3
    Commercial name             : Dolby Digital Plus
    Format profile              : Blu-ray Disc
    Codec ID                    : A_EAC3
    Duration                    : 1 h 43 min
    Bit rate mode               : Constant
    Bit rate                    : 1 024 kb/s
    Channel(s)                  : 6 channels
    Channel(s)_Original         : 8 channels
    ChannelLayout_Original      : L R C LFE Ls Rs Lrs Rrs
    Sampling rate               : 48.0 kHz
    Frame rate                  : 31.250 FPS (1536 SPF)
    Compression mode            : Lossy
    Stream size                 : 755 MiB (2%)
    Language                    : English
    Service kind                : Complete Main
    Default                     : No
    Forced                      : No

    Audio #4
    ID                          : 5
    Format                      : AC-3
    Format/Info                 : Audio Coding 3
    Commercial name             : Dolby Digital
    Format settings             : Dolby Surround EX
    Codec ID                    : A_AC3
    Duration                    : 1 h 43 min
    Bit rate mode               : Constant
    Bit rate                    : 640 kb/s
    Channel(s)                  : 6 channels
    Channel layout              : L R C LFE Ls Rs
    Sampling rate               : 48.0 kHz
    Frame rate                  : 31.250 FPS (1536 SPF)
    Compression mode            : Lossy
    Stream size                 : 472 MiB (1%)
    Language                    : Spanish
    Service kind                : Complete Main
    Default                     : Yes
    Forced                      : No

    Text
    ID                          : 6
    Format                      : PGS
    Muxing mode                 : zlib
    Codec ID                    : S_HDMV/PGS
    Codec ID/Info               : Picture based subtitle format used on BDs/HD-DVDs
    Duration                    : 1 h 36 min
    Bit rate                    : 36.3 kb/s
    Count of elements           : 2250
    Stream size                 : 25.1 MiB (0%)
    Language                    : Spanish
    Default                     : No
    Forced                      : No

    Menu
    00:00:00.000                : en:Chapter 1
    00:04:54.377                : en:Chapter 2
    00:06:21.088                : en:Chapter 3
    00:11:38.239                : en:Chapter 4
    00:15:18.000                : en:Chapter 5
    00:18:35.030                : en:Chapter 6
    00:19:24.705                : en:Chapter 7
    00:26:17.951                : en:Chapter 8
    00:29:00.238                : en:Chapter 9
    00:31:48.656                : en:Chapter 10
    00:33:23.167                : en:Chapter 11
    00:35:50.898                : en:Chapter 12
    00:37:30.956                : en:Chapter 13
    00:40:12.159                : en:Chapter 14
    00:41:13.470                : en:Chapter 15
    00:43:38.323                : en:Chapter 16
    00:44:50.103                : en:Chapter 17
    00:48:20.355                : en:Chapter 18
    00:52:28.895                : en:Chapter 19
    00:53:52.729                : en:Chapter 20
    00:57:12.804                : en:Chapter 21
    00:58:21.539                : en:Chapter 22
    01:01:10.833                : en:Chapter 23
    01:02:07.473                : en:Chapter 24
    01:02:57.857                : en:Chapter 25
    01:06:35.866                : en:Chapter 26
    01:11:22.569                : en:Chapter 27
    01:15:58.094                : en:Chapter 28
    01:17:36.651                : en:Chapter 29
    01:19:44.028                : en:Chapter 30
    01:23:02.768                : en:Chapter 31
    01:25:00.428                : en:Chapter 32
    01:28:16.415                : en:Chapter 33
    01:34:19.111                : en:Chapter 34

  • Peso: 36.2 GiB

Sinopsis

Sabiendo que su dueño Andy, que ya no es un niño, se prepara para ir a la universidad, el vaquero Woody, el astronauta Buzz y el resto de sus amigos juguetes comienzan a preocuparse ante su incierto futuro. Efectivamente todos acaban en una guardería, donde por ejemplo la muñeca Barbie conocerá al guapo Ken. Esta reunión de nuestros amigos con otros nuevos juguetes no será sino el inicio de un montón de trepidantes y divertidas aventuras.

 

Latino: E-AC3 7.1  –  Inglés: True HD 7.1

Ficha técnica

Video trailer de la película

Enlaces de descarga

Rip de Bluray

Descargar Toy Story 3 (2010) REMUX 4K HDR Latino – CMHDD


Aportes de DPeliculasHDmega la pass es:dpeliculashdmega.org Aportes de CinemaniaHD la pass es:cinemaniahdd.com
Guardado en : Animación , Comedia , Familia

Películas relacionadas

  • Mi amigo el dragón (2016) Full HD 1080p Latino

    Mi amigo el dragón (2016) Full HD 1080p Latino

    2016
    Mi amigo el dragón (2016) Full HD 1080p Latino

    1h 43m 2016

    Descargar Mi amigo el dragón (2016) Full HD 1080p Latino. Durante años el Sr. Meacham, un viejo tallador...

    Director: Joe Nolan

    Género: Aventura

    Actores: William J. Rawbone

  • Mi amigo el dragón (2016) REMUX 1080p Latino

    Mi amigo el dragón (2016) REMUX 1080p Latino

    2016
    Mi amigo el dragón (2016) REMUX 1080p Latino

    1h 43m 2016

    Descargar Mi amigo el dragón (2016) REMUX 1080p Latino. Durante años el Sr. Meacham, un viejo tallador...

    Director: Joe Nolan

    Género: Aventura

    Actores: William J. Rawbone

  • Un mundo extraño (2022) HD 1080p Latino

    Un mundo extraño (2022) HD 1080p Latino

    2022
    Un mundo extraño (2022) HD 1080p Latino

    1h 42m 2022

    Descargar Un mundo extraño (2022) HD 1080p Latino. Los Clades son una familia conocida en todo el mundo,...

    Director: Thai Bettistea

    Género: Animación

    Actores: Reed Buck

descargar Toy Story 3 (2010) REMUX 4K HDR Latino – CMHDD 4K HDR 1080p gratis, Toy Story 3 (2010) REMUX 4K HDR Latino – CMHDD 4K HDR mega 1 link, Toy Story 3 (2010) REMUX 4K HDR Latino – CMHDD 4K HDR pelicula completa, descargar Toy Story 3 (2010) REMUX 4K HDR Latino – CMHDD 4K HDR gratis en mega.

Toy Story 3 (2010) REMUX 4K HDR Latino – CMHDD pelicula full hd, Toy Story 3 (2010) REMUX 4K HDR Latino – CMHDD mega latino, Toy Story 3 (2010) REMUX 4K HDR Latino – CMHDD 4k latino, Toy Story 3 (2010) REMUX 4K HDR Latino – CMHDD pelicula completa, Toy Story 3 (2010) REMUX 4K HDR Latino – CMHDD descargar gratis, descargar Toy Story 3 (2010) REMUX 4K HDR Latino – CMHDD pelicula latino, Toy Story 3 (2010) REMUX 4K HDR Latino – CMHDD 1 link mega, Toy Story 3 (2010) REMUX 4K HDR Latino – CMHDD 1 link google drive, Toy Story 3 (2010) REMUX 4K HDR Latino – CMHDD hd 1080p latino.
Comentarios 0