×

¿Problemas para descargar con Mozilla, EDGE? Deshabilita la opción "Abrir vinculos en una pestaña nueva" tal como lo muestra ésta imagen.

Toy Story 2 (1999) REMUX 4K HDR Latino – CMHDD

101 vistas

Información de Toy Story 2 (1999) REMUX 4K HDR Latino – CMHDD

Datos de la película

  • Calidad: 4K HDR
  • Audio: Español Latino AC3 5.1 BLURAY - Ingles AC3 5.1 BLURAY
  • Subtitulos: Español Latino PGS
  • Resolución: 3840x2160p
  • Formato: MKV
  • Codec: H.264
  • Encoder: Dracarys
  • Mediainfo: Clic para Mostrar Datos Ver
  • Format                      : Matroska
    Format version              : Version 4
    File size                   : 38.2 GiB
    Duration                    : 1 h 32 min
    Overall bit rate mode       : Variable
    Overall bit rate            : 59.1 Mb/s
    Movie name                  : Toy Story 2 (1999) REMUX 4K HDR Latino - CMHDD
    Encoded date                : UTC 2022-05-04 18:19:24
    Writing application         : mkvmerge v17.0.0 ('Be Ur Friend') 64-bit
    Writing library             : libebml v1.3.5 + libmatroska v1.4.8

    Video
    ID                          : 1
    Format                      : HEVC
    Format/Info                 : High Efficiency Video Coding
    Format profile              : Main 10@L5.1@High
    HDR format                  : SMPTE ST 2086, HDR10 compatible
    Codec ID                    : V_MPEGH/ISO/HEVC
    Duration                    : 1 h 32 min
    Bit rate                    : 50.7 Mb/s
    Width                       : 3 840 pixels
    Height                      : 2 160 pixels
    Display aspect ratio        : 16:9
    Frame rate mode             : Constant
    Frame rate                  : 23.976 (23976/1000) FPS
    Original frame rate         : 23.976 (24000/1001) FPS
    Color space                 : YUV
    Chroma subsampling          : 4:2:0 (Type 2)
    Bit depth                   : 10 bits
    Bits/(Pixel*Frame)          : 0.255
    Stream size                 : 32.7 GiB (86%)
    Writing library             : ATEME Titan File 3.9.0 (4.9.0.0)        
    Default                     : Yes
    Forced                      : No
    Color range                 : Limited
    Color primaries             : BT.2020
    Transfer characteristics    : PQ
    Matrix coefficients         : BT.2020 non-constant
    Mastering display color pri : Display P3
    Mastering display luminance : min: 0.0000 cd/m2, max: 1000 cd/m2

    Audio #1
    ID                          : 2
    Format                      : MLP FBA 16-ch
    Format/Info                 : Meridian Lossless Packing FBA with 16-channel presentation
    Commercial name             : Dolby TrueHD with Dolby Atmos
    Codec ID                    : A_TRUEHD
    Duration                    : 1 h 32 min
    Bit rate mode               : Variable
    Bit rate                    : 7 059 kb/s
    Maximum bit rate            : 8 883 kb/s
    Channel(s)                  : 8 channels
    Channel layout              : L R C LFE Ls Rs Lb Rb
    Sampling rate               : 48.0 kHz
    Frame rate                  : 1 200.000 FPS (40 SPF)
    Compression mode            : Lossless
    Delay relative to video     : 32 ms
    Stream size                 : 4.56 GiB (12%)
    Language                    : English
    Default                     : No
    Forced                      : No
    Number of dynamic objects   : 13
    Bed channel count           : 1 channel
    Bed channel configuration   : LFE

    Audio #2
    ID                          : 3
    Format                      : AC-3
    Format/Info                 : Audio Coding 3
    Commercial name             : Dolby Digital
    Format settings             : Dolby Surround EX
    Codec ID                    : A_AC3
    Duration                    : 1 h 32 min
    Bit rate mode               : Constant
    Bit rate                    : 640 kb/s
    Channel(s)                  : 6 channels
    Channel layout              : L R C LFE Ls Rs
    Sampling rate               : 48.0 kHz
    Frame rate                  : 31.250 FPS (1536 SPF)
    Compression mode            : Lossy
    Delay relative to video     : 31 ms
    Stream size                 : 423 MiB (1%)
    Language                    : English
    Service kind                : Complete Main
    Default                     : No
    Forced                      : No

    Audio #3
    ID                          : 4
    Format                      : AC-3
    Format/Info                 : Audio Coding 3
    Commercial name             : Dolby Digital
    Format settings             : Dolby Surround EX
    Codec ID                    : A_AC3
    Duration                    : 1 h 32 min
    Bit rate mode               : Constant
    Bit rate                    : 640 kb/s
    Channel(s)                  : 6 channels
    Channel layout              : L R C LFE Ls Rs
    Sampling rate               : 48.0 kHz
    Frame rate                  : 31.250 FPS (1536 SPF)
    Compression mode            : Lossy
    Stream size                 : 423 MiB (1%)
    Language                    : Spanish
    Service kind                : Complete Main
    Default                     : Yes
    Forced                      : No

    Text
    ID                          : 5
    Format                      : PGS
    Muxing mode                 : zlib
    Codec ID                    : S_HDMV/PGS
    Codec ID/Info               : Picture based subtitle format used on BDs/HD-DVDs
    Duration                    : 1 h 28 min
    Bit rate                    : 39.4 kb/s
    Count of elements           : 2354
    Stream size                 : 24.9 MiB (0%)
    Language                    : Spanish
    Default                     : No
    Forced                      : No

    Menu
    00:00:00.000                : en:Chapter 1
    00:01:24.417                : en:Chapter 2
    00:04:49.122                : en:Chapter 3
    00:07:36.622                : en:Chapter 4
    00:10:41.766                : en:Chapter 5
    00:11:55.631                : en:Chapter 6
    00:12:47.933                : en:Chapter 7
    00:15:30.763                : en:Chapter 8
    00:18:16.678                : en:Chapter 9
    00:20:18.425                : en:Chapter 10
    00:24:14.870                : en:Chapter 11
    00:25:55.220                : en:Chapter 12
    00:30:32.956                : en:Chapter 13
    00:31:49.282                : en:Chapter 14
    00:32:52.303                : en:Chapter 15
    00:36:45.828                : en:Chapter 16
    00:39:09.972                : en:Chapter 17
    00:39:53.891                : en:Chapter 18
    00:41:07.172                : en:Chapter 19
    00:42:27.044                : en:Chapter 20
    00:44:42.179                : en:Chapter 21
    00:46:59.399                : en:Chapter 22
    00:53:24.784                : en:Chapter 23
    00:56:20.752                : en:Chapter 24
    01:01:10.875                : en:Chapter 25
    01:02:15.106                : en:Chapter 26
    01:04:24.735                : en:Chapter 27
    01:08:01.243                : en:Chapter 28
    01:09:53.021                : en:Chapter 29
    01:12:28.302                : en:Chapter 30
    01:14:59.327                : en:Chapter 31
    01:17:29.144                : en:Chapter 32
    01:19:47.115                : en:Chapter 33
    01:21:36.641                : en:Chapter 34
    01:25:49.811                : en:Chapter 35

  • Peso: 38.2 GiB

Sinopsis

Cuando Andy se va de campamento dejando solos a los juguetes, Al McWhiggin, un compulsivo coleccionista de juguetes valiosos, secuestra a Woody. Buzz Lightyear y el resto de los juguetes de Andy deberán actuar con rapidez para rescatarlo, poniéndose al frente de una operación de rescate durante la cual se enfrentarán a múltiples peligros y divertidas situaciones.

Ficha técnica

Video trailer de la película

Enlaces de descarga

Rip de Bluray

Descargar Toy Story 2 (1999) REMUX 4K HDR Latino – CMHDD


Aportes de DPeliculasHDmega la pass es:dpeliculashdmega.org Aportes de CinemaniaHD la pass es:cinemaniahdd.com
Guardado en : Animación , Comedia , Familia

Películas relacionadas

descargar Toy Story 2 (1999) REMUX 4K HDR Latino – CMHDD 4K HDR 1080p gratis, Toy Story 2 (1999) REMUX 4K HDR Latino – CMHDD 4K HDR mega 1 link, Toy Story 2 (1999) REMUX 4K HDR Latino – CMHDD 4K HDR pelicula completa, descargar Toy Story 2 (1999) REMUX 4K HDR Latino – CMHDD 4K HDR gratis en mega.

Toy Story 2 (1999) REMUX 4K HDR Latino – CMHDD pelicula full hd, Toy Story 2 (1999) REMUX 4K HDR Latino – CMHDD mega latino, Toy Story 2 (1999) REMUX 4K HDR Latino – CMHDD 4k latino, Toy Story 2 (1999) REMUX 4K HDR Latino – CMHDD pelicula completa, Toy Story 2 (1999) REMUX 4K HDR Latino – CMHDD descargar gratis, descargar Toy Story 2 (1999) REMUX 4K HDR Latino – CMHDD pelicula latino, Toy Story 2 (1999) REMUX 4K HDR Latino – CMHDD 1 link mega, Toy Story 2 (1999) REMUX 4K HDR Latino – CMHDD 1 link google drive, Toy Story 2 (1999) REMUX 4K HDR Latino – CMHDD hd 1080p latino.
Comentarios 0