×

¿Problemas para descargar con Mozilla, EDGE? Deshabilita la opción "Abrir vinculos en una pestaña nueva" tal como lo muestra ésta imagen.

Toy Story (1995) REMUX 4K HDR Latino – CMHDD

219 vistas

Información de Toy Story (1995) REMUX 4K HDR Latino – CMHDD

Datos de la película

  • Calidad: 4K HDR
  • Audio: Español Latino AC3 5.1 BLURAY - Ingles AC3 5.1 BLURAY
  • Subtitulos: Español Latino PGS
  • Resolución: 3840x2160p
  • Formato: MKV
  • Codec: H.264
  • Encoder: Dracarys
  • Mediainfo: Clic para Mostrar Datos Ver
  • Format                      : Matroska
    Format version              : Version 4
    File size                   : 38.0 GiB
    Duration                    : 1 h 21 min
    Overall bit rate mode       : Variable
    Overall bit rate            : 67.1 Mb/s
    Movie name                  : Toy Story (1995) REMUX 4K HDR Latino - CMHDD
    Encoded date                : UTC 2022-05-04 17:54:51
    Writing application         : mkvmerge v17.0.0 ('Be Ur Friend') 64-bit
    Writing library             : libebml v1.3.5 + libmatroska v1.4.8

    Video
    ID                          : 1
    Format                      : HEVC
    Format/Info                 : High Efficiency Video Coding
    Format profile              : Main 10@L5.1@High
    HDR format                  : SMPTE ST 2086, HDR10 compatible
    Codec ID                    : V_MPEGH/ISO/HEVC
    Duration                    : 1 h 21 min
    Bit rate                    : 58.1 Mb/s
    Width                       : 3 840 pixels
    Height                      : 2 160 pixels
    Display aspect ratio        : 16:9
    Frame rate mode             : Constant
    Frame rate                  : 23.976 (23976/1000) FPS
    Original frame rate         : 23.976 (24000/1001) FPS
    Color space                 : YUV
    Chroma subsampling          : 4:2:0 (Type 2)
    Bit depth                   : 10 bits
    Bits/(Pixel*Frame)          : 0.292
    Stream size                 : 32.9 GiB (87%)
    Writing library             : ATEME Titan File 3.9.0 (4.9.0.0)        
    Default                     : Yes
    Forced                      : No
    Color range                 : Limited
    Color primaries             : BT.2020
    Transfer characteristics    : PQ
    Matrix coefficients         : BT.2020 non-constant
    Mastering display color pri : Display P3
    Mastering display luminance : min: 0.0000 cd/m2, max: 1000 cd/m2

    Audio #1
    ID                          : 2
    Format                      : MLP FBA 16-ch
    Format/Info                 : Meridian Lossless Packing FBA with 16-channel presentation
    Commercial name             : Dolby TrueHD with Dolby Atmos
    Codec ID                    : A_TRUEHD
    Duration                    : 1 h 21 min
    Bit rate mode               : Variable
    Bit rate                    : 7 637 kb/s
    Maximum bit rate            : 9 612 kb/s
    Channel(s)                  : 8 channels
    Channel layout              : L R C LFE Ls Rs Lb Rb
    Sampling rate               : 48.0 kHz
    Frame rate                  : 1 200.000 FPS (40 SPF)
    Compression mode            : Lossless
    Delay relative to video     : 32 ms
    Stream size                 : 4.33 GiB (11%)
    Language                    : English
    Default                     : No
    Forced                      : No
    Number of dynamic objects   : 13
    Bed channel count           : 1 channel
    Bed channel configuration   : LFE

    Audio #2
    ID                          : 3
    Format                      : AC-3
    Format/Info                 : Audio Coding 3
    Commercial name             : Dolby Digital
    Format settings             : Dolby Surround EX
    Codec ID                    : A_AC3
    Duration                    : 1 h 21 min
    Bit rate mode               : Constant
    Bit rate                    : 640 kb/s
    Channel(s)                  : 6 channels
    Channel layout              : L R C LFE Ls Rs
    Sampling rate               : 48.0 kHz
    Frame rate                  : 31.250 FPS (1536 SPF)
    Compression mode            : Lossy
    Delay relative to video     : 31 ms
    Stream size                 : 371 MiB (1%)
    Language                    : English
    Service kind                : Complete Main
    Default                     : No
    Forced                      : No

    Audio #3
    ID                          : 4
    Format                      : AC-3
    Format/Info                 : Audio Coding 3
    Commercial name             : Dolby Digital
    Format settings             : Dolby Surround EX
    Codec ID                    : A_AC3
    Duration                    : 1 h 21 min
    Bit rate mode               : Constant
    Bit rate                    : 640 kb/s
    Channel(s)                  : 6 channels
    Channel layout              : L R C LFE Ls Rs
    Sampling rate               : 48.0 kHz
    Frame rate                  : 31.250 FPS (1536 SPF)
    Compression mode            : Lossy
    Stream size                 : 371 MiB (1%)
    Language                    : Spanish
    Service kind                : Complete Main
    Default                     : Yes
    Forced                      : No

    Text
    ID                          : 5
    Format                      : PGS
    Muxing mode                 : zlib
    Codec ID                    : S_HDMV/PGS
    Codec ID/Info               : Picture based subtitle format used on BDs/HD-DVDs
    Duration                    : 1 h 18 min
    Bit rate                    : 40.4 kb/s
    Count of elements           : 2098
    Stream size                 : 22.6 MiB (0%)
    Language                    : Spanish
    Default                     : No
    Forced                      : No

    Menu
    00:00:00.000                : en:Chapter 1
    00:02:03.081                : en:Chapter 2
    00:04:01.199                : en:Chapter 3
    00:06:34.852                : en:Chapter 4
    00:09:20.101                : en:Chapter 5
    00:14:17.815                : en:Chapter 6
    00:20:11.084                : en:Chapter 7
    00:22:18.044                : en:Chapter 8
    00:24:25.797                : en:Chapter 9
    00:26:02.060                : en:Chapter 10
    00:29:29.767                : en:Chapter 11
    00:30:10.183                : en:Chapter 12
    00:35:10.691                : en:Chapter 13
    00:39:26.238                : en:Chapter 14
    00:43:00.369                : en:Chapter 15
    00:43:44.163                : en:Chapter 16
    00:46:26.533                : en:Chapter 17
    00:47:21.004                : en:Chapter 18
    00:49:08.945                : en:Chapter 19
    00:51:09.357                : en:Chapter 20
    00:53:50.769                : en:Chapter 21
    00:56:24.547                : en:Chapter 22
    00:57:15.598                : en:Chapter 23
    01:01:41.906                : en:Chapter 24
    01:02:50.933                : en:Chapter 25
    01:04:49.927                : en:Chapter 26
    01:07:59.491                : en:Chapter 27
    01:13:11.136                : en:Chapter 28
    01:15:40.911                : en:Chapter 29
    01:17:09.207                : en:Chapter 30

  • Peso: 38.0 GiB

Sinopsis

Los juguetes de Andy, un niño de seis años, temen que haya llegado su hora y que un nuevo regalo de cumpleaños les sustituya en el corazón de su dueño. Woody, un vaquero que ha sido hasta ahora el juguete favorito de Andy, trata de tranquilizarlos hasta que aparece Buzz Lightyear, un héroe espacial dotado de todo tipo de avances tecnológicos. Woody es relegado a un segundo plano., pero su constante rivalidad se transformará en una gran amistad cuando ambos se pierden en la ciudad sin saber cómo volver a casa.

Ficha técnica

Video trailer de la película

Enlaces de descarga

Rip de Bluray

Descargar Toy Story (1995) REMUX 4K HDR Latino – CMHDD


Aportes de DPeliculasHDmega la pass es:dpeliculashdmega.org Aportes de CinemaniaHD la pass es:cinemaniahdd.com
Guardado en : Animación , Aventura , Comedia , Familia

Películas relacionadas

descargar Toy Story (1995) REMUX 4K HDR Latino – CMHDD 4K HDR 1080p gratis, Toy Story (1995) REMUX 4K HDR Latino – CMHDD 4K HDR mega 1 link, Toy Story (1995) REMUX 4K HDR Latino – CMHDD 4K HDR pelicula completa, descargar Toy Story (1995) REMUX 4K HDR Latino – CMHDD 4K HDR gratis en mega.

Toy Story (1995) REMUX 4K HDR Latino – CMHDD pelicula full hd, Toy Story (1995) REMUX 4K HDR Latino – CMHDD mega latino, Toy Story (1995) REMUX 4K HDR Latino – CMHDD 4k latino, Toy Story (1995) REMUX 4K HDR Latino – CMHDD pelicula completa, Toy Story (1995) REMUX 4K HDR Latino – CMHDD descargar gratis, descargar Toy Story (1995) REMUX 4K HDR Latino – CMHDD pelicula latino, Toy Story (1995) REMUX 4K HDR Latino – CMHDD 1 link mega, Toy Story (1995) REMUX 4K HDR Latino – CMHDD 1 link google drive, Toy Story (1995) REMUX 4K HDR Latino – CMHDD hd 1080p latino.
Comentarios 0