×

¿Problemas para descargar con Mozilla, EDGE? Deshabilita la opción "Abrir vinculos en una pestaña nueva" tal como lo muestra ésta imagen.

Tóxico (2020) WEB-DL 1080p Latino

215 vistas

Información de Tóxico (2020) WEB-DL 1080p Latino

Datos de la película

  • Calidad: WEBDL
  • Audio: Español Latino AC3 2.0
  • Subtitulos: No
  • Resolución: 1920x1080
  • Formato: MKV
  • Codec: H.264
  • Encoder: cinemaniahdd
  • Mediainfo: Clic para Mostrar Datos Ver
  • Tóxico (2020) WEB-DL 1080p Latino [CNMNHDD].mkv
    Format                      : Matroska
    Format version              : Version 4
    File size                   : 3.44 GiB
    Duration                    : 1 h 20 min
    Overall bit rate mode       : Constant
    Overall bit rate            : 6 130 kb/s
    Movie name                  : Tóxico (2020) - CinemaniaHDD.Net
    Encoded date                : UTC 2020-08-26 22:27:44
    Writing application         : mkvmerge v46.0.0 ('No Deeper Escape') 64-bit
    Writing library             : libebml v1.3.10 + libmatroska v1.5.2

    Video
    ID                          : 1
    Format                      : AVC
    Format/Info                 : Advanced Video Codec
    Format profile              : Main@L4.1
    Format settings             : CABAC / 3 Ref Frames
    Format settings, CABAC      : Yes
    Format settings, Reference  : 3 frames
    Codec ID                    : V_MPEG4/ISO/AVC
    Duration                    : 1 h 20 min
    Bit rate mode               : Constant
    Bit rate                    : 6 000 kb/s
    Width                       : 1 920 pixels
    Height                      : 1 080 pixels
    Display aspect ratio        : 16:9
    Frame rate mode             : Constant
    Frame rate                  : 29.970 (30000/1001) FPS
    Color space                 : YUV
    Chroma subsampling          : 4:2:0
    Bit depth                   : 8 bits
    Scan type                   : Progressive
    Bits/(Pixel*Frame)          : 0.097
    Stream size                 : 3.30 GiB (96%)
    Title                       : CinemaniaHDD
    Language                    : Spanish
    Default                     : Yes
    Forced                      : No

    Audio
    ID                          : 2
    Format                      : AC-3
    Format/Info                 : Audio Coding 3
    Commercial name             : Dolby Digital
    Codec ID                    : A_AC3
    Duration                    : 1 h 20 min
    Bit rate mode               : Constant
    Bit rate                    : 256 kb/s
    Channel(s)                  : 2 channels
    Channel layout              : L R
    Sampling rate               : 48.0 kHz
    Frame rate                  : 31.250 FPS (1536 SPF)
    Compression mode            : Lossy
    Stream size                 : 147 MiB (4%)
    Title                       : Español latino [CinemaniaHDD]
    Language                    : Spanish
    Service kind                : Complete Main
    Default                     : Yes
    Forced                      : No

     

  • Peso: 3.44 GiB

Sinopsis

En medio de una pandemia de insomnio que cobra lentamente dimensiones catastróficas, Laura y Augusto huyen de la ciudad en su motorhome para alejarse del caos. A medida que avanzan por la ruta, el mundo se vuelve un lugar cada vez más extraño y peligroso. Finalmente Laura revela una noticia que lo cambia todo. El camino se va despoblando, el silencio crece, cada vez resulta más difícil diferenciar la realidad del ensueño.

Ficha técnica

Video trailer de la película

Enlaces de descarga

Rip de Bluray

Descargar Tóxico (2020) WEB-DL 1080p Latino




Aportes de DPeliculasHDmega la pass es:dpeliculashdmega.org Aportes de CinemaniaHD la pass es:cinemaniahdd.com
Guardado en : Ciencia ficción , Suspenso

Películas relacionadas

descargar Tóxico (2020) WEB-DL 1080p Latino WEBDL 1080p gratis, Tóxico (2020) WEB-DL 1080p Latino WEBDL mega 1 link, Tóxico (2020) WEB-DL 1080p Latino WEBDL pelicula completa, descargar Tóxico (2020) WEB-DL 1080p Latino WEBDL gratis en mega.

Tóxico (2020) WEB-DL 1080p Latino pelicula full hd, Tóxico (2020) WEB-DL 1080p Latino mega latino, Tóxico (2020) WEB-DL 1080p Latino 4k latino, Tóxico (2020) WEB-DL 1080p Latino pelicula completa, Tóxico (2020) WEB-DL 1080p Latino descargar gratis, descargar Tóxico (2020) WEB-DL 1080p Latino pelicula latino, Tóxico (2020) WEB-DL 1080p Latino 1 link mega, Tóxico (2020) WEB-DL 1080p Latino 1 link google drive, Tóxico (2020) WEB-DL 1080p Latino hd 1080p latino.
Comentarios 0