×

¿Problemas para descargar con Mozilla, EDGE? Deshabilita la opción "Abrir vinculos en una pestaña nueva" tal como lo muestra ésta imagen.

El vengador del futuro (1990) Uncut Remastered REMUX 1080p Latino

527 vistas

Información de El vengador del futuro (1990) Uncut Remastered REMUX 1080p Latino

Datos de la película

  • Calidad: Full 1080p
  • Audio: Se especifica abajo de la Sinopsis
  • Subtitulos: Español Latino PGS - Ingles PGS
  • Resolución: 1920x1080p
  • Formato: MKV
  • Codec: H.264
  • Encoder: CinefiloCool
  • Mediainfo: Clic para Mostrar Datos Ver
  • El Vengador Del Futuro (1990) U-R REMUX 1080p Latino-CMHDD.mkv
    Format                      : Matroska
    Format version              : Version 4
    File size                   : 25.7 GiB
    Duration                    : 1 h 53 min
    Overall bit rate mode       : Variable
    Overall bit rate            : 32.4 Mb/s
    Movie name                  : Total Recall (1990) CinemaniaHDD.Net
    Encoded date                : UTC 2022-08-15 04:39:18
    Writing application         : mkvmerge v56.1.0 ('My Friend') 64-bit
    Writing library             : libebml v1.4.2 + libmatroska v1.6.4
    Attachments                 : CINEMANIAHD.png

    Video
    ID                          : 1
    ID in the original source m : 4113 (0x1011)
    Format                      : AVC
    Format/Info                 : Advanced Video Codec
    Format profile              : High@L4.1
    Format settings             : CABAC / 4 Ref Frames
    Format settings, CABAC      : Yes
    Format settings, Reference  : 4 frames
    Codec ID                    : V_MPEG4/ISO/AVC
    Duration                    : 1 h 53 min
    Bit rate mode               : Variable
    Bit rate                    : 27.7 Mb/s
    Maximum bit rate            : 30.0 Mb/s
    Width                       : 1 920 pixels
    Height                      : 1 080 pixels
    Display aspect ratio        : 16:9
    Frame rate mode             : Constant
    Frame rate                  : 24.000 FPS
    Color space                 : YUV
    Chroma subsampling          : 4:2:0
    Bit depth                   : 8 bits
    Scan type                   : Progressive
    Bits/(Pixel*Frame)          : 0.557
    Stream size                 : 21.9 GiB (85%)
    Title                       : REMUX HD1080p [CinemaniaHDD]
    Default                     : Yes
    Forced                      : No
    Original source medium      : Blu-ray

    Audio #1
    ID                          : 2
    ID in the original source m : 4357 (0x1105)
    Format                      : DTS
    Format/Info                 : Digital Theater Systems
    Codec ID                    : A_DTS
    Duration                    : 1 h 53 min
    Bit rate mode               : Constant
    Bit rate                    : 768 kb/s
    Channel(s)                  : 2 channels
    Channel layout              : L R
    Sampling rate               : 48.0 kHz
    Frame rate                  : 93.750 FPS (512 SPF)
    Bit depth                   : 24 bits
    Compression mode            : Lossy
    Stream size                 : 622 MiB (2%)
    Title                       : Español Latino [CinemaniaHDD]
    Language                    : Spanish
    Default                     : Yes
    Forced                      : No
    Original source medium      : Blu-ray

    Audio #2
    ID                          : 3
    ID in the original source m : 4352 (0x1100)
    Format                      : MLP FBA 16-ch
    Format/Info                 : Meridian Lossless Packing FBA with 16-channel presentation
    Commercial name             : Dolby TrueHD with Dolby Atmos
    Codec ID                    : A_TRUEHD
    Duration                    : 1 h 53 min
    Bit rate mode               : Variable
    Bit rate                    : 3 464 kb/s
    Maximum bit rate            : 5 412 kb/s
    Channel(s)                  : 8 channels
    Channel layout              : L R C LFE Ls Rs Lb Rb
    Sampling rate               : 48.0 kHz
    Frame rate                  : 1 200.000 FPS (40 SPF)
    Compression mode            : Lossless
    Stream size                 : 2.74 GiB (11%)
    Title                       : Ingles [CinemaniaHDD]
    Language                    : English
    Default                     : No
    Forced                      : No
    Original source medium      : Blu-ray
    Number of dynamic objects   : 11
    Bed channel count           : 1 channel
    Bed channel configuration   : LFE

    Audio #3
    ID                          : 4
    ID in the original source m : 4352 (0x1100)
    Format                      : AC-3
    Format/Info                 : Audio Coding 3
    Commercial name             : Dolby Digital
    Format settings             : Dolby Surround EX
    Codec ID                    : A_AC3
    Duration                    : 1 h 53 min
    Bit rate mode               : Constant
    Bit rate                    : 384 kb/s
    Channel(s)                  : 6 channels
    Channel layout              : L R C LFE Ls Rs
    Sampling rate               : 48.0 kHz
    Frame rate                  : 31.250 FPS (1536 SPF)
    Compression mode            : Lossy
    Stream size                 : 311 MiB (1%)
    Title                       : Ingles AC3 [CinemaniaHDD]
    Language                    : English
    Service kind                : Complete Main
    Default                     : No
    Forced                      : No
    Original source medium      : Blu-ray

    Text #1
    ID                          : 5
    ID in the original source m : 4611 (0x1203)
    Format                      : PGS
    Muxing mode                 : zlib
    Codec ID                    : S_HDMV/PGS
    Codec ID/Info               : Picture based subtitle format used on BDs/HD-DVDs
    Duration                    : 1 h 45 min
    Bit rate                    : 27.3 kb/s
    Count of elements           : 2254
    Stream size                 : 20.5 MiB (0%)
    Title                       : Español-PGS [CinemaniaHDD]
    Language                    : Spanish
    Default                     : No
    Forced                      : No
    Original source medium      : Blu-ray

    Text #2
    ID                          : 6
    ID in the original source m : 4610 (0x1202)
    Format                      : PGS
    Muxing mode                 : zlib
    Codec ID                    : S_HDMV/PGS
    Codec ID/Info               : Picture based subtitle format used on BDs/HD-DVDs
    Duration                    : 1 h 45 min
    Bit rate                    : 32.3 kb/s
    Count of elements           : 2274
    Stream size                 : 24.4 MiB (0%)
    Title                       : Ingles-PGS [CinemaniaHDD]
    Language                    : English
    Default                     : No
    Forced                      : No
    Original source medium      : Blu-ray

    Text #3
    ID                          : 7
    Format                      : UTF-8
    Codec ID                    : S_TEXT/UTF8
    Codec ID/Info               : UTF-8 Plain Text
    Duration                    : 4 s 932 ms
    Bit rate                    : 35 b/s
    Count of elements           : 1
    Stream size                 : 22.0 Bytes (0%)
    Title                       : Forzados-SRT [CinemaniaHDD]
    Language                    : Spanish
    Default                     : Yes
    Forced                      : No

    Text #4
    ID                          : 8
    Format                      : UTF-8
    Codec ID                    : S_TEXT/UTF8
    Codec ID/Info               : UTF-8 Plain Text
    Duration                    : 1 h 48 min
    Bit rate                    : 49 b/s
    Count of elements           : 1059
    Stream size                 : 38.9 KiB (0%)
    Title                       : Español-SRT [CinemaniaHDD]
    Language                    : Spanish
    Default                     : No
    Forced                      : No

    Menu
    00:00:00.000                : Chapter 01
    00:05:50.583                : Chapter 02
    00:11:27.375                : Chapter 03
    00:18:14.000                : Chapter 04
    00:24:50.916                : Chapter 05
    00:29:37.625                : Chapter 06
    00:37:05.875                : Chapter 07
    00:43:11.833                : Chapter 08
    00:48:35.666                : Chapter 09
    00:55:02.041                : Chapter 10
    01:00:03.916                : Chapter 11
    01:15:21.166                : Chapter 12
    01:20:16.166                : Chapter 13
    01:27:07.083                : Chapter 14
    01:32:18.458                : Chapter 15
    01:39:53.041                : Chapter 16

  • Peso: 25.7 GiB

Sinopsis

Descargar El vengador del futuro (1990) Uncut Remastered REMUX 1080p Latino. Tierra, año 2084. Doug Quaid, un hombre normal con una vida tranquila, está atormentado por una pesadilla que le lleva todas las noches hasta Marte. Decide entonces recurrir al laboratorio Memory-call, una empresa de vacaciones virtuales que le ofrece la oportunidad de materializar su sueño gracias a un fuerte alucinógeno. Sin embargo, su intento resulta en fracaso. La droga resucita de su memoria una estancia verdadera en Marte cuando era el más temido agente del cruel Coohagen.

Audio Español Latino DTS 2.0 Bluray – Ingles TrueHD 7.1 + AC3 5.1 Bluray
Disponible Solo Para VIP!!!

Ficha técnica

Video trailer de la película

Enlaces de descarga

Rip de Bluray

Descargar El vengador del futuro (1990) Uncut Remastered REMUX 1080p Latino


Aportes de DPeliculasHDmega la pass es:dpeliculashdmega.org Aportes de CinemaniaHD la pass es:cinemaniahdd.com
Guardado en : Acción , Aventura , Ciencia ficción , Remux

Películas relacionadas

descargar El vengador del futuro (1990) Uncut Remastered REMUX 1080p Latino Full 1080p 1080p gratis, El vengador del futuro (1990) Uncut Remastered REMUX 1080p Latino Full 1080p mega 1 link, El vengador del futuro (1990) Uncut Remastered REMUX 1080p Latino Full 1080p pelicula completa, descargar El vengador del futuro (1990) Uncut Remastered REMUX 1080p Latino Full 1080p gratis en mega.

El vengador del futuro (1990) Uncut Remastered REMUX 1080p Latino pelicula full hd, El vengador del futuro (1990) Uncut Remastered REMUX 1080p Latino mega latino, El vengador del futuro (1990) Uncut Remastered REMUX 1080p Latino 4k latino, El vengador del futuro (1990) Uncut Remastered REMUX 1080p Latino pelicula completa, El vengador del futuro (1990) Uncut Remastered REMUX 1080p Latino descargar gratis, descargar El vengador del futuro (1990) Uncut Remastered REMUX 1080p Latino pelicula latino, El vengador del futuro (1990) Uncut Remastered REMUX 1080p Latino 1 link mega, El vengador del futuro (1990) Uncut Remastered REMUX 1080p Latino 1 link google drive, El vengador del futuro (1990) Uncut Remastered REMUX 1080p Latino hd 1080p latino.
Comentarios 0