×

¿Problemas para descargar con Mozilla, EDGE? Deshabilita la opción "Abrir vinculos en una pestaña nueva" tal como lo muestra ésta imagen.

Tortugas Ninja: Caos mutante (2023) WEB-DL 4K UHD HDR/DV Latino

309 vistas

Información de Tortugas Ninja: Caos mutante (2023) WEB-DL 4K UHD HDR/DV Latino

Datos de la película

  • Calidad: WEBDL
  • Audio: Español Latino AC3 5.1 WEB-DL - Ingles AC3 5.1 WEB-DL
  • Subtitulos: Español Latino SRT- FORZADOS SRT
  • Resolución: 3840x1608p
  • Formato: MKV
  • Codec: HEVC
  • Encoder: Melkor
  • Mediainfo: Clic para Mostrar Datos Ver
  • Tortugas Ninja Caos mutante (2023) WEB UHD HDR-DV Latino.mkv
    Format                      : Matroska
    Format version              : Version 4
    File size                   : 18.1 GiB
    Duration                    : 1 h 42 min
    Overall bit rate            : 25.2 Mb/s
    Movie name                  : Teenage Mutant Ninja Turtles. Mutant Mayhem (2023) CinemaniaHDD.Net
    Encoded date                : UTC 2023-09-15 15:38:04
    Writing application         : mkvmerge v56.1.0 ('My Friend') 64-bit
    Writing library             : libebml v1.4.2 + libmatroska v1.6.4
    Attachments                 : CINEMANIAHD.png
    Site                        : CinemaniaHDD.Net
    Uploader                    : Melkor

    Video
    ID                          : 1
    Format                      : HEVC
    Format/Info                 : High Efficiency Video Coding
    Format profile              : Main 10@L5@High
    HDR format                  : Dolby Vision, Version 1.0, dvhe.08.06, BL+RPU, HDR10 compatible / SMPTE ST 2094 App 4, Version 1, HDR10+ Profile B compatible
    Codec ID                    : V_MPEGH/ISO/HEVC
    Duration                    : 1 h 39 min
    Bit rate                    : 23.9 Mb/s
    Width                       : 3 840 pixels
    Height                      : 1 608 pixels
    Display aspect ratio        : 2.40:1
    Frame rate mode             : Constant
    Frame rate                  : 23.976 (24000/1001) FPS
    Color space                 : YUV
    Chroma subsampling          : 4:2:0 (Type 2)
    Bit depth                   : 10 bits
    Bits/(Pixel*Frame)          : 0.162
    Stream size                 : 16.6 GiB (92%)
    Title                       : Web 2160p HDR [CinemaniaHDD]
    Language                    : English
    Default                     : Yes
    Forced                      : No
    Color range                 : Limited
    Color primaries             : BT.2020
    Transfer characteristics    : PQ
    Matrix coefficients         : BT.2020 non-constant
    Mastering display color pri : Display P3
    Mastering display luminance : min: 0.0050 cd/m2, max: 1000 cd/m2
    Maximum Content Light Level : 776 cd/m2
    Maximum Frame-Average Light : 156 cd/m2

    Audio #1
    ID                          : 2
    Format                      : AC-3
    Format/Info                 : Audio Coding 3
    Commercial name             : Dolby Digital
    Codec ID                    : A_AC3
    Duration                    : 1 h 42 min
    Bit rate mode               : Constant
    Bit rate                    : 640 kb/s
    Channel(s)                  : 6 channels
    Channel layout              : L R C LFE Ls Rs
    Sampling rate               : 48.0 kHz
    Frame rate                  : 31.250 FPS (1536 SPF)
    Compression mode            : Lossy
    Stream size                 : 470 MiB (3%)
    Title                       : Español Latino AC3 [CinemaniaHDD]
    Language                    : Spanish
    Service kind                : Complete Main
    Default                     : Yes
    Forced                      : Yes

    Audio #2
    ID                          : 3
    Format                      : E-AC-3
    Format/Info                 : Enhanced AC-3
    Commercial name             : Dolby Digital Plus
    Codec ID                    : A_EAC3
    Duration                    : 1 h 42 min
    Bit rate mode               : Constant
    Bit rate                    : 640 kb/s
    Channel(s)                  : 6 channels
    Channel layout              : L R C LFE Ls Rs
    Sampling rate               : 48.0 kHz
    Frame rate                  : 31.250 FPS (1536 SPF)
    Compression mode            : Lossy
    Stream size                 : 470 MiB (3%)
    Title                       : Español Latino EAC3 [CinemaniaHDD]
    Language                    : Spanish
    Service kind                : Complete Main
    Default                     : No
    Forced                      : No

    Audio #3
    ID                          : 4
    Format                      : E-AC-3 JOC
    Format/Info                 : Enhanced AC-3 with Joint Object Coding
    Commercial name             : Dolby Digital Plus with Dolby Atmos
    Codec ID                    : A_EAC3
    Duration                    : 1 h 39 min
    Bit rate mode               : Constant
    Bit rate                    : 768 kb/s
    Channel(s)                  : 6 channels
    Channel layout              : L R C LFE Ls Rs
    Sampling rate               : 48.0 kHz
    Frame rate                  : 31.250 FPS (1536 SPF)
    Compression mode            : Lossy
    Stream size                 : 546 MiB (3%)
    Title                       : Ingles [CinemaniaHDD]
    Language                    : English
    Service kind                : Complete Main
    Default                     : No
    Forced                      : No
    Complexity index            : 16
    Number of dynamic objects   : 15
    Bed channel count           : 1 channel
    Bed channel configuration   : LFE

    Text #1
    ID                          : 5
    Format                      : UTF-8
    Codec ID                    : S_TEXT/UTF8
    Codec ID/Info               : UTF-8 Plain Text
    Duration                    : 1 h 38 min
    Bit rate                    : 0 b/s
    Count of elements           : 36
    Stream size                 : 731 Bytes (0%)
    Title                       : Forzados-SRT [CinemaniaHDD]
    Language                    : Spanish
    Default                     : Yes
    Forced                      : Yes

    Text #2
    ID                          : 6
    Format                      : UTF-8
    Codec ID                    : S_TEXT/UTF8
    Codec ID/Info               : UTF-8 Plain Text
    Duration                    : 1 h 38 min
    Bit rate                    : 65 b/s
    Count of elements           : 1396
    Stream size                 : 47.6 KiB (0%)
    Title                       : Español-SRT [CinemaniaHDD]
    Language                    : Spanish
    Default                     : No
    Forced                      : No

    Text #3
    ID                          : 7
    Format                      : UTF-8
    Codec ID                    : S_TEXT/UTF8
    Codec ID/Info               : UTF-8 Plain Text
    Duration                    : 1 h 32 min
    Bit rate                    : 81 b/s
    Count of elements           : 1618
    Stream size                 : 55.5 KiB (0%)
    Title                       : Ingles-SRT [CinemaniaHDD]
    Language                    : English
    Default                     : No
    Forced                      : No

    Menu
    00:00:00.000                : Chapter 01
    00:04:50.373                : Chapter 02
    00:11:13.673                : Chapter 03
    00:17:31.343                : Chapter 04
    00:26:04.647                : Chapter 05
    00:33:23.336                : Chapter 06
    00:43:46.793                : Chapter 07
    00:53:43.264                : Chapter 08
    00:58:21.668                : Chapter 09
    01:06:32.867                : Chapter 10
    01:14:57.747                : Chapter 11
    01:21:23.717                : Chapter 12
    01:26:46.956                : Chapter 13
    01:29:40.922                : Chapter 14

  • Peso: 18.1 GiB

Sinopsis

Descargar Tortugas Ninja: Caos mutante (2023) WEB-DL 4K UHD HDR/DV Latino. Después de pasar años apartados del mundo humano, los hermanos Tortuga se proponen ganarse el corazón de los habitantes de Nueva York y que les acepten como quinceañeros normales, llevando a cabo actos heroicos. Su nueva amiga April O’Neil les ayuda a enfrentarse a un misterioso sindicato del crimen, pero pronto se ven superados ante el ataque de un ejército de mutantes que se abalanza sobre ellos.

Ficha técnica

Video trailer de la película

Enlaces de descarga

Rip de Bluray

Descargar Tortugas Ninja: Caos mutante (2023) WEB-DL 4K UHD HDR/DV Latino




Aportes de DPeliculasHDmega la pass es:dpeliculashdmega.org Aportes de CinemaniaHD la pass es:cinemaniahdd.com Aportes recientes:cinemaniahdd.net
Guardado en : 4K HDR , 4K UHD , Acción , Animación , Comedia

Películas relacionadas

  • Viviendo con mi ex (2006) REMUX 1080p Latino-CMHDD

    Viviendo con mi ex (2006) REMUX 1080p Latino-CMHDD

    2006
    Viviendo con mi ex (2006) REMUX 1080p Latino-CMHDD

    1h 46m 2006

    Descargar Viviendo con mi ex (2006) REMUX 1080p Latino-CMHDD. Relato sobre las consecuencias de una ruptura...

    Director: Todd Amateau

    Género: Comedia

    Actores: William Dick

  • The Lego Movie (2014) REMUX 4K HDR Latino – CMHDD

    The Lego Movie (2014) REMUX 4K HDR Latino – CMHDD

    2014
    The Lego Movie (2014) REMUX 4K HDR Latino – CMHDD

    1h 40m 2014

    Película basada en los clásicos juguetes LEGO. Emmet, el protagonista de la película, trabaja como...

    Director: Vernessa Cook

    Género: Animación

    Actores: Will Forte

  • The Lego Movie (2014) REMUX 1080p Latino – CMHDD

    The Lego Movie (2014) REMUX 1080p Latino – CMHDD

    2014
    The Lego Movie (2014) REMUX 1080p Latino – CMHDD

    1h 40m 2014

    Película basada en los clásicos juguetes LEGO. Emmet, el protagonista de la película, trabaja como...

    Director: Vernessa Cook

    Género: Animación

    Actores: Will Forte

descargar Tortugas Ninja: Caos mutante (2023) WEB-DL 4K UHD HDR/DV Latino WEBDL 1080p gratis, Tortugas Ninja: Caos mutante (2023) WEB-DL 4K UHD HDR/DV Latino WEBDL mega 1 link, Tortugas Ninja: Caos mutante (2023) WEB-DL 4K UHD HDR/DV Latino WEBDL pelicula completa, descargar Tortugas Ninja: Caos mutante (2023) WEB-DL 4K UHD HDR/DV Latino WEBDL gratis en mega.

Tortugas Ninja: Caos mutante (2023) WEB-DL 4K UHD HDR/DV Latino pelicula full hd, Tortugas Ninja: Caos mutante (2023) WEB-DL 4K UHD HDR/DV Latino mega latino, Tortugas Ninja: Caos mutante (2023) WEB-DL 4K UHD HDR/DV Latino 4k latino, Tortugas Ninja: Caos mutante (2023) WEB-DL 4K UHD HDR/DV Latino pelicula completa, Tortugas Ninja: Caos mutante (2023) WEB-DL 4K UHD HDR/DV Latino descargar gratis, descargar Tortugas Ninja: Caos mutante (2023) WEB-DL 4K UHD HDR/DV Latino pelicula latino, Tortugas Ninja: Caos mutante (2023) WEB-DL 4K UHD HDR/DV Latino 1 link mega, Tortugas Ninja: Caos mutante (2023) WEB-DL 4K UHD HDR/DV Latino 1 link google drive, Tortugas Ninja: Caos mutante (2023) WEB-DL 4K UHD HDR/DV Latino hd 1080p latino.
Comentarios 0