×

¿Problemas para descargar con Mozilla, EDGE? Deshabilita la opción "Abrir vinculos en una pestaña nueva" tal como lo muestra ésta imagen.

Tortugas Ninja: Caos mutante (2023) AMZN WEB-DL 1080p Latino

242 vistas

Información de Tortugas Ninja: Caos mutante (2023) AMZN WEB-DL 1080p Latino

Datos de la película

  • Calidad: WEBDL
  • Audio: Español Latino AC3 5.1 WEB-DL - Ingles AC3 5.1 WEB-DL
  • Subtitulos: Español Latino SRT- FORZADOS SRT
  • Resolución: 1920x800p
  • Formato: MKV
  • Codec: H.264
  • Encoder: Melkor
  • Mediainfo: Clic para Mostrar Datos Ver
  • Tortugas Ninja Caos mutante (2023) AMZN WebDL 1080p Latino.mkv
    Format                      : Matroska
    Format version              : Version 4
    File size                   : 7.07 GiB
    Duration                    : 1 h 42 min
    Overall bit rate            : 9 855 kb/s
    Movie name                  : Teenage Mutant Ninja Turtles. Mutant Mayhem (2023) CinemaniaHDD.Net
    Encoded date                : UTC 2023-09-15 15:23:41
    Writing application         : mkvmerge v56.1.0 ('My Friend') 64-bit
    Writing library             : libebml v1.4.2 + libmatroska v1.6.4
    Attachments                 : CINEMANIAHD.png
    Site                        : CinemaniaHDD.Net
    Uploader                    : Melkor

    Video
    ID                          : 1
    Format                      : AVC
    Format/Info                 : Advanced Video Codec
    Format profile              : High@L4
    Format settings             : CABAC / 4 Ref Frames
    Format settings, CABAC      : Yes
    Format settings, Reference  : 4 frames
    Codec ID                    : V_MPEG4/ISO/AVC
    Duration                    : 1 h 39 min
    Bit rate mode               : Constant
    Bit rate                    : 8 076 kb/s
    Nominal bit rate            : 10 000 kb/s
    Width                       : 1 920 pixels
    Height                      : 800 pixels
    Display aspect ratio        : 2.40:1
    Frame rate mode             : Constant
    Frame rate                  : 23.976 (24000/1001) FPS
    Color space                 : YUV
    Chroma subsampling          : 4:2:0
    Bit depth                   : 8 bits
    Scan type                   : Progressive
    Bits/(Pixel*Frame)          : 0.219
    Stream size                 : 5.61 GiB (79%)
    Title                       : Web HD1080p [CinemaniaHDD]
    Language                    : English
    Default                     : Yes
    Forced                      : Yes
    Color range                 : Limited
    Color primaries             : BT.709
    Transfer characteristics    : BT.709
    Matrix coefficients         : BT.709

    Audio #1
    ID                          : 2
    Format                      : AC-3
    Format/Info                 : Audio Coding 3
    Commercial name             : Dolby Digital
    Codec ID                    : A_AC3
    Duration                    : 1 h 42 min
    Bit rate mode               : Constant
    Bit rate                    : 640 kb/s
    Channel(s)                  : 6 channels
    Channel layout              : L R C LFE Ls Rs
    Sampling rate               : 48.0 kHz
    Frame rate                  : 31.250 FPS (1536 SPF)
    Compression mode            : Lossy
    Stream size                 : 470 MiB (6%)
    Title                       : Español Latino AC3 [CinemaniaHDD]
    Language                    : Spanish
    Service kind                : Complete Main
    Default                     : Yes
    Forced                      : Yes

    Audio #2
    ID                          : 3
    Format                      : E-AC-3
    Format/Info                 : Enhanced AC-3
    Commercial name             : Dolby Digital Plus
    Codec ID                    : A_EAC3
    Duration                    : 1 h 42 min
    Bit rate mode               : Constant
    Bit rate                    : 640 kb/s
    Channel(s)                  : 6 channels
    Channel layout              : L R C LFE Ls Rs
    Sampling rate               : 48.0 kHz
    Frame rate                  : 31.250 FPS (1536 SPF)
    Compression mode            : Lossy
    Stream size                 : 470 MiB (6%)
    Title                       : Español Latino EAC3 [CinemaniaHDD]
    Language                    : Spanish
    Service kind                : Complete Main
    Default                     : No
    Forced                      : No

    Audio #3
    ID                          : 4
    Format                      : E-AC-3 JOC
    Format/Info                 : Enhanced AC-3 with Joint Object Coding
    Commercial name             : Dolby Digital Plus with Dolby Atmos
    Codec ID                    : A_EAC3
    Duration                    : 1 h 39 min
    Bit rate mode               : Constant
    Bit rate                    : 768 kb/s
    Channel(s)                  : 6 channels
    Channel layout              : L R C LFE Ls Rs
    Sampling rate               : 48.0 kHz
    Frame rate                  : 31.250 FPS (1536 SPF)
    Compression mode            : Lossy
    Delay relative to video     : 43 ms
    Stream size                 : 546 MiB (8%)
    Title                       : Ingles [CinemaniaHDD]
    Language                    : English
    Service kind                : Complete Main
    Default                     : No
    Forced                      : No
    Complexity index            : 16
    Number of dynamic objects   : 15
    Bed channel count           : 1 channel
    Bed channel configuration   : LFE

    Text #1
    ID                          : 5
    Format                      : UTF-8
    Codec ID                    : S_TEXT/UTF8
    Codec ID/Info               : UTF-8 Plain Text
    Duration                    : 1 h 38 min
    Bit rate                    : 0 b/s
    Count of elements           : 36
    Stream size                 : 731 Bytes (0%)
    Title                       : Forzados-SRT [CinemaniaHDD]
    Language                    : Spanish
    Default                     : Yes
    Forced                      : Yes

    Text #2
    ID                          : 6
    Format                      : UTF-8
    Codec ID                    : S_TEXT/UTF8
    Codec ID/Info               : UTF-8 Plain Text
    Duration                    : 1 h 38 min
    Bit rate                    : 65 b/s
    Count of elements           : 1396
    Stream size                 : 47.6 KiB (0%)
    Title                       : Español-SRT [CinemaniaHDD]
    Language                    : Spanish
    Default                     : No
    Forced                      : No

    Text #3
    ID                          : 7
    Format                      : UTF-8
    Codec ID                    : S_TEXT/UTF8
    Codec ID/Info               : UTF-8 Plain Text
    Duration                    : 1 h 32 min
    Bit rate                    : 81 b/s
    Count of elements           : 1618
    Stream size                 : 55.5 KiB (0%)
    Title                       : Ingles-SRT [CinemaniaHDD]
    Language                    : English
    Default                     : No
    Forced                      : No

    Menu
    00:00:00.043                : Chapter 01
    00:04:50.416                : Chapter 02
    00:11:13.716                : Chapter 03
    00:17:31.386                : Chapter 04
    00:26:04.690                : Chapter 05
    00:33:23.379                : Chapter 06
    00:43:46.836                : Chapter 07
    00:53:43.307                : Chapter 08
    00:58:21.711                : Chapter 09
    01:06:32.910                : Chapter 10
    01:14:57.790                : Chapter 11
    01:21:23.760                : Chapter 12
    01:26:46.999                : Chapter 13
    01:29:40.965                : Chapter 14

  • Peso: 7.07 GiB

Sinopsis

Descargar Tortugas Ninja: Caos mutante (2023) AMZN WEB-DL 1080p Latino. Después de pasar años apartados del mundo humano, los hermanos Tortuga se proponen ganarse el corazón de los habitantes de Nueva York y que les acepten como quinceañeros normales, llevando a cabo actos heroicos. Su nueva amiga April O’Neil les ayuda a enfrentarse a un misterioso sindicato del crimen, pero pronto se ven superados ante el ataque de un ejército de mutantes que se abalanza sobre ellos.

Ficha técnica

Video trailer de la película

Enlaces de descarga

Rip de Bluray

Descargar Tortugas Ninja: Caos mutante (2023) AMZN WEB-DL 1080p Latino




Aportes de DPeliculasHDmega la pass es:dpeliculashdmega.org Aportes de CinemaniaHD la pass es:cinemaniahdd.com Aportes recientes:cinemaniahdd.net
Guardado en : Acción , Animación , Comedia

Películas relacionadas

  • Good Burger 2 (2023) HD 1080p Latino

    Good Burger 2 (2023) HD 1080p Latino

    2023
    Good Burger 2 (2023) HD 1080p Latino

    1h 31m 2023

    Descargar Good Burger 2 (2023) HD 1080p Latino. Después de que su último invento falla, Ed le da la...

    Director: Ross Novie

    Género: Comedia

    Actores: Zoe Saldana

  • Good Burger 2 (2023) PLACEBO Full HD 1080p Latino

    Good Burger 2 (2023) PLACEBO Full HD 1080p Latino

    2023
    Good Burger 2 (2023) PLACEBO Full HD 1080p Latino

    1h 31m 2023

    Descargar Good Burger 2 (2023) PLACEBO Full HD 1080p Latino. Después de que su último invento falla,...

    Director: Ross Novie

    Género: Comedia

    Actores: Zoe Saldana

  • Good Burger 2 (2023) REMUX 1080p Latino

    Good Burger 2 (2023) REMUX 1080p Latino

    2023
    Good Burger 2 (2023) REMUX 1080p Latino

    1h 31m 2023

    Descargar Good Burger 2 (2023) REMUX 1080p Latino. Después de que su último invento falla, Ed le da...

    Director: Ross Novie

    Género: Comedia

    Actores: Zoe Saldana

descargar Tortugas Ninja: Caos mutante (2023) AMZN WEB-DL 1080p Latino WEBDL 1080p gratis, Tortugas Ninja: Caos mutante (2023) AMZN WEB-DL 1080p Latino WEBDL mega 1 link, Tortugas Ninja: Caos mutante (2023) AMZN WEB-DL 1080p Latino WEBDL pelicula completa, descargar Tortugas Ninja: Caos mutante (2023) AMZN WEB-DL 1080p Latino WEBDL gratis en mega.

Tortugas Ninja: Caos mutante (2023) AMZN WEB-DL 1080p Latino pelicula full hd, Tortugas Ninja: Caos mutante (2023) AMZN WEB-DL 1080p Latino mega latino, Tortugas Ninja: Caos mutante (2023) AMZN WEB-DL 1080p Latino 4k latino, Tortugas Ninja: Caos mutante (2023) AMZN WEB-DL 1080p Latino pelicula completa, Tortugas Ninja: Caos mutante (2023) AMZN WEB-DL 1080p Latino descargar gratis, descargar Tortugas Ninja: Caos mutante (2023) AMZN WEB-DL 1080p Latino pelicula latino, Tortugas Ninja: Caos mutante (2023) AMZN WEB-DL 1080p Latino 1 link mega, Tortugas Ninja: Caos mutante (2023) AMZN WEB-DL 1080p Latino 1 link google drive, Tortugas Ninja: Caos mutante (2023) AMZN WEB-DL 1080p Latino hd 1080p latino.
Comentarios 0