×

¿Problemas para descargar con Mozilla, EDGE? Deshabilita la opción "Abrir vinculos en una pestaña nueva" tal como lo muestra ésta imagen.

Top Gun: Maverick (2022) IMAX WEB-DL 4K UHD HDR Latino

66 vistas

Información de Top Gun: Maverick (2022) IMAX WEB-DL 4K UHD HDR Latino

Datos de la película

  • Calidad: WEBDL
  • Audio: Español Latino AC3 5.1 WEB-DL - Ingles AC3 5.1 WEB-DL
  • Subtitulos: Español Latino SRT- FORZADOS SRT
  • Resolución: 3840x2024p
  • Formato: MKV
  • Codec: HEVC
  • Encoder: Melkor
  • Mediainfo: Clic para Mostrar Datos Ver
  • Top Gun Maverick (2022) IMAX WEB UHD HDR Latino.mkv
    Format                      : Matroska
    Format version              : Version 4
    File size                   : 23.7 GiB
    Duration                    : 2 h 10 min
    Overall bit rate            : 26.0 Mb/s
    Movie name                  : Top Gun Maverick (2022) CinemaniaHDD.Net
    Encoded date                : UTC 2022-08-23 02:57:53
    Writing application         : mkvmerge v56.1.0 ('My Friend') 64-bit
    Writing library             : libebml v1.4.2 + libmatroska v1.6.4
    Attachments                 : CINEMANIAHD.png

    Video
    ID                          : 1
    Format                      : HEVC
    Format/Info                 : High Efficiency Video Coding
    Format profile              : Main 10@L5@High
    HDR format                  : SMPTE ST 2086, HDR10 compatible
    Codec ID                    : V_MPEGH/ISO/HEVC
    Duration                    : 2 h 10 min
    Bit rate                    : 24.4 Mb/s
    Width                       : 3 840 pixels
    Height                      : 2 024 pixels
    Display aspect ratio        : 1.897
    Frame rate mode             : Constant
    Frame rate                  : 23.976 (24000/1001) FPS
    Color space                 : YUV
    Chroma subsampling          : 4:2:0 (Type 2)
    Bit depth                   : 10 bits
    Bits/(Pixel*Frame)          : 0.131
    Stream size                 : 22.2 GiB (94%)
    Title                       : Web 2160p HDR [CinemaniaHDD]
    Language                    : English
    Default                     : Yes
    Forced                      : No
    Color range                 : Limited
    Color primaries             : BT.2020
    Transfer characteristics    : PQ
    Matrix coefficients         : BT.2020 non-constant
    Mastering display color pri : Display P3
    Mastering display luminance : min: 0.0050 cd/m2, max: 1000 cd/m2
    Maximum Content Light Level : 897 cd/m2
    Maximum Frame-Average Light : 497 cd/m2

    Audio #1
    ID                          : 2
    Format                      : AC-3
    Format/Info                 : Audio Coding 3
    Commercial name             : Dolby Digital
    Codec ID                    : A_AC3
    Duration                    : 2 h 10 min
    Bit rate mode               : Constant
    Bit rate                    : 448 kb/s
    Channel(s)                  : 6 channels
    Channel layout              : L R C LFE Ls Rs
    Sampling rate               : 48.0 kHz
    Frame rate                  : 31.250 FPS (1536 SPF)
    Compression mode            : Lossy
    Stream size                 : 417 MiB (2%)
    Title                       : Español Latino AC3 [CinemaniaHDD]
    Language                    : Spanish
    Service kind                : Complete Main
    Default                     : Yes
    Forced                      : Yes

    Audio #2
    ID                          : 3
    Format                      : E-AC-3
    Format/Info                 : Enhanced AC-3
    Commercial name             : Dolby Digital Plus
    Codec ID                    : A_EAC3
    Duration                    : 2 h 10 min
    Bit rate mode               : Constant
    Bit rate                    : 384 kb/s
    Channel(s)                  : 6 channels
    Channel layout              : L R C LFE Ls Rs
    Sampling rate               : 48.0 kHz
    Frame rate                  : 31.250 FPS (1536 SPF)
    Compression mode            : Lossy
    Stream size                 : 358 MiB (1%)
    Title                       : Español Latino EAC3 [CinemaniaHDD]
    Language                    : Spanish
    Service kind                : Complete Main
    Default                     : No
    Forced                      : No

    Audio #3
    ID                          : 4
    Format                      : E-AC-3 JOC
    Format/Info                 : Enhanced AC-3 with Joint Object Coding
    Commercial name             : Dolby Digital Plus with Dolby Atmos
    Codec ID                    : A_EAC3
    Duration                    : 2 h 10 min
    Bit rate mode               : Constant
    Bit rate                    : 768 kb/s
    Channel(s)                  : 6 channels
    Channel layout              : L R C LFE Ls Rs
    Sampling rate               : 48.0 kHz
    Frame rate                  : 31.250 FPS (1536 SPF)
    Compression mode            : Lossy
    Stream size                 : 715 MiB (3%)
    Title                       : Ingles [CinemaniaHDD]
    Language                    : English
    Service kind                : Complete Main
    Default                     : No
    Forced                      : No
    Complexity index            : 16
    Number of dynamic objects   : 15
    Bed channel count           : 1 channel
    Bed channel configuration   : LFE

    Text #1
    ID                          : 5
    Format                      : UTF-8
    Codec ID                    : S_TEXT/UTF8
    Codec ID/Info               : UTF-8 Plain Text
    Duration                    : 2 h 9 min
    Bit rate                    : 0 b/s
    Count of elements           : 30
    Stream size                 : 959 Bytes (0%)
    Title                       : Forzados-SRT [CinemaniaHDD]
    Language                    : Spanish
    Default                     : Yes
    Forced                      : Yes

    Text #2
    ID                          : 6
    Format                      : UTF-8
    Codec ID                    : S_TEXT/UTF8
    Codec ID/Info               : UTF-8 Plain Text
    Duration                    : 2 h 9 min
    Bit rate                    : 43 b/s
    Count of elements           : 1434
    Stream size                 : 41.2 KiB (0%)
    Title                       : Español-SRT [CinemaniaHDD]
    Language                    : Spanish
    Default                     : No
    Forced                      : No

    Text #3
    ID                          : 7
    Format                      : UTF-8
    Codec ID                    : S_TEXT/UTF8
    Codec ID/Info               : UTF-8 Plain Text
    Duration                    : 1 h 57 min
    Bit rate                    : 52 b/s
    Count of elements           : 1453
    Stream size                 : 45.4 KiB (0%)
    Title                       : Ingles-SRT [CinemaniaHDD]
    Language                    : English
    Default                     : No
    Forced                      : No

    Menu
    00:00:00.000                : Chapter 01
    00:03:05.560                : Chapter 02
    00:13:40.111                : Chapter 03
    00:21:23.283                : Chapter 04
    00:32:39.417                : Chapter 05
    00:44:47.771                : Chapter 06
    00:53:54.943                : Chapter 07
    01:00:09.859                : Chapter 08
    01:07:38.058                : Chapter 09
    01:15:46.171                : Chapter 10
    01:23:37.726                : Chapter 11
    01:31:49.134                : Chapter 12
    01:41:32.926                : Chapter 13
    01:48:48.278                : Chapter 14
    01:57:22.417                : Chapter 15
    02:03:13.143                : Chapter 16

  • Peso: 23.7 GiB

Sinopsis

Descargar Top Gun: Maverick (2022) IMAX WEB-DL 4K UHD HDR Latino. Después de más de 30 años de servicio como uno de los mejores aviadores de la Armada, Pete «Maverick» Mitchell se encuentra dónde siempre quiso estar, empujando los límites como un valiente piloto de prueba y esquivando el alcance en su rango, que no le dejaría volar emplazándolo en tierra. Cuando se encuentra entrenando a un destacamento de graduados de Top Gun para una misión especializada, Maverick se encuentra allí con el teniente Bradley Bradshaw, el hijo de su difunto amigo «Goose».

contreseña para descomprimir en el paste

Ficha técnica

Video trailer de la película

Enlaces de descarga

Rip de Bluray

Descargar Top Gun: Maverick (2022) IMAX WEB-DL 4K UHD HDR Latino




Aportes de DPeliculasHDmega la pass es:dpeliculashdmega.org Aportes de CinemaniaHD la pass es:cinemaniahdd.com
Guardado en : 4K HDR , 4K UHD , Acción , Drama

Películas relacionadas

descargar Top Gun: Maverick (2022) IMAX WEB-DL 4K UHD HDR Latino WEBDL 1080p gratis, Top Gun: Maverick (2022) IMAX WEB-DL 4K UHD HDR Latino WEBDL mega 1 link, Top Gun: Maverick (2022) IMAX WEB-DL 4K UHD HDR Latino WEBDL pelicula completa, descargar Top Gun: Maverick (2022) IMAX WEB-DL 4K UHD HDR Latino WEBDL gratis en mega.

Top Gun: Maverick (2022) IMAX WEB-DL 4K UHD HDR Latino pelicula full hd, Top Gun: Maverick (2022) IMAX WEB-DL 4K UHD HDR Latino mega latino, Top Gun: Maverick (2022) IMAX WEB-DL 4K UHD HDR Latino 4k latino, Top Gun: Maverick (2022) IMAX WEB-DL 4K UHD HDR Latino pelicula completa, Top Gun: Maverick (2022) IMAX WEB-DL 4K UHD HDR Latino descargar gratis, descargar Top Gun: Maverick (2022) IMAX WEB-DL 4K UHD HDR Latino pelicula latino, Top Gun: Maverick (2022) IMAX WEB-DL 4K UHD HDR Latino 1 link mega, Top Gun: Maverick (2022) IMAX WEB-DL 4K UHD HDR Latino 1 link google drive, Top Gun: Maverick (2022) IMAX WEB-DL 4K UHD HDR Latino hd 1080p latino.
Comentarios 0