Top Gun: Pasión y Gloria (1986) OPEN MATTE Web-DL 1080p Latino

3.582 vistas
1 estrella2 estrellas3 estrellas4 estrellas5 estrellas (1 votos, promedio: 5,00 de 5)
Cargando…

Información de Top Gun: Pasión y Gloria (1986) OPEN MATTE Web-DL 1080p Latino

Datos de la película

  • Calidad: WEBDL
  • Audio: Español Latino AC3 5.1 BLURAY - Ingles DTS 5.1 BLURAY
  • Subtitulos: Español Latino SRT - Ingles SRT
  • Resolución: 1920X1080p
  • Formato: MKV
  • Codec: H.264
  • Encoder: Dracarys
  • Mediainfo: Clic para Mostrar Datos Ver
  • Top Gun Pasion y Gloria (1986) OPEN MATTE Web-DL 1080p Latino-CMHDD.mkv
    Format                      : Matroska
    Format version              : Version 4
    File size                   : 5.40 GiB
    Duration                    : 1 h 49 min
    Overall bit rate            : 7 044 kb/s
    Movie name                  : Top Gun (1986) CinemaniaHDD.Net
    Encoded date                : UTC 2020-06-30 05:58:19
    Writing application         : mkvmerge v46.0.0 ('No Deeper Escape') 64-bit
    Writing library             : libebml v1.3.10 + libmatroska v1.5.2
    Attachments                 : CINEMANIAHD.png

    Video
    ID                          : 1
    Format                      : AVC
    Format/Info                 : Advanced Video Codec
    Format profile              : High@L4.1
    Format settings             : CABAC / 4 Ref Frames
    Format settings, CABAC      : Yes
    Format settings, Reference  : 4 frames
    Codec ID                    : V_MPEG4/ISO/AVC
    Duration                    : 1 h 49 min
    Bit rate                    : 5 120 kb/s
    Width                       : 1 920 pixels
    Height                      : 1 080 pixels
    Display aspect ratio        : 16:9
    Frame rate mode             : Constant
    Frame rate                  : 23.976 (24000/1001) FPS
    Color space                 : YUV
    Chroma subsampling          : 4:2:0
    Bit depth                   : 8 bits
    Scan type                   : Progressive
    Bits/(Pixel*Frame)          : 0.103
    Stream size                 : 3.75 GiB (69%)
    Title                       : Web Open Matte [CinemaniaHDD]
    Writing library             : x264 core 142
    Encoding settings           : cabac=1 / ref=3 / deblock=1:0:0 / analyse=0x3:0x113 / me=hex / subme=7 / psy=1 / psy_rd=1.00:0.00 / mixed_ref=1 / me_range=16 / chroma_me=1 / trellis=1 / 8x8dct=1 / cqm=0 / deadzone=21,11 / fast_pskip=1 / chroma_qp_offset=-2 / threads=48 / lookahead_threads=8 / sliced_threads=0 / nr=0 / decimate=1 / interlaced=0 / bluray_compat=0 / constrained_intra=0 / bframes=6 / b_pyramid=2 / b_adapt=1 / b_bias=0 / direct=1 / weightb=1 / open_gop=0 / weightp=2 / keyint=200 / keyint_min=20 / scenecut=0 / intra_refresh=0 / rc_lookahead=40 / rc=2pass / mbtree=1 / bitrate=5120 / ratetol=1.0 / qcomp=0.60 / qpmin=0 / qpmax=69 / qpstep=4 / cplxblur=20.0 / qblur=0.5 / vbv_maxrate=7680 / vbv_bufsize=20480 / nal_hrd=none / filler=0 / ip_ratio=1.40 / aq=1:1.00
    Language                    : English
    Default                     : Yes
    Forced                      : No

    Audio #1
    ID                          : 2
    ID in the original source m : 4353 (0x1101)
    Format                      : AC-3
    Format/Info                 : Audio Coding 3
    Commercial name             : Dolby Digital
    Codec ID                    : A_AC3
    Duration                    : 1 h 49 min
    Bit rate mode               : Constant
    Bit rate                    : 640 kb/s
    Channel(s)                  : 6 channels
    Channel layout              : L R C LFE Ls Rs
    Sampling rate               : 48.0 kHz
    Frame rate                  : 31.250 FPS (1536 SPF)
    Compression mode            : Lossy
    Delay relative to video     : 1 s 98 ms
    Stream size                 : 501 MiB (9%)
    Title                       : Español Latino [CinemaniaHDD]
    Language                    : Spanish
    Service kind                : Complete Main
    Default                     : Yes
    Forced                      : Yes
    Original source medium      : Blu-ray

    Audio #2
    ID                          : 3
    Format                      : DTS
    Format/Info                 : Digital Theater Systems
    Codec ID                    : A_DTS
    Duration                    : 1 h 49 min
    Bit rate mode               : Constant
    Bit rate                    : 1 509 kb/s
    Channel(s)                  : 6 channels
    Channel layout              : C L R Ls Rs LFE
    Sampling rate               : 48.0 kHz
    Frame rate                  : 93.750 FPS (512 SPF)
    Bit depth                   : 24 bits
    Compression mode            : Lossy
    Stream size                 : 1.16 GiB (21%)
    Title                       : Ingles [CinemaniaHDD]
    Language                    : English
    Default                     : No
    Forced                      : No

    Text #1
    ID                          : 4
    Format                      : UTF-8
    Codec ID                    : S_TEXT/UTF8
    Codec ID/Info               : UTF-8 Plain Text
    Duration                    : 1 h 38 min
    Bit rate                    : 0 b/s
    Count of elements           : 6
    Stream size                 : 199 Bytes (0%)
    Title                       : Forzados-SRT [CinemaniaHDD]
    Language                    : Spanish
    Default                     : Yes
    Forced                      : Yes

    Text #2
    ID                          : 5
    Format                      : UTF-8
    Codec ID                    : S_TEXT/UTF8
    Codec ID/Info               : UTF-8 Plain Text
    Duration                    : 1 h 43 min
    Bit rate                    : 54 b/s
    Count of elements           : 1367
    Stream size                 : 41.2 KiB (0%)
    Title                       : Español-SRT [CinemaniaHDD]
    Language                    : Spanish
    Default                     : No
    Forced                      : No

    Text #3
    ID                          : 6
    Format                      : UTF-8
    Codec ID                    : S_TEXT/UTF8
    Codec ID/Info               : UTF-8 Plain Text
    Duration                    : 1 h 42 min
    Bit rate                    : 60 b/s
    Count of elements           : 1495
    Stream size                 : 45.9 KiB (0%)
    Title                       : Ingles-SRT [CinemaniaHDD]
    Language                    : English
    Default                     : No
    Forced                      : No

  • Peso: 5.40 GiB

Sinopsis

Descargar Top Gun: Pasión y Gloria (1986) OPEN MATTE Web-DL 1080p Latino. La Marina de los Estados Unidos ha creado una escuela de élite para pilotos con el fin de sacar una promoción de expertos en técnicas de combate. En la academia, más conocida como Top Gun, a los mejores se les entrena para ser intrépidos y fríos al mismo tiempo, capaces de no perder los nervios en situaciones extremas y de no inmutarse al romper la barrera del sonido a los mandos de un F-14. A la escuela llega el joven Maverick, famoso por su temeraria aunque brillante forma de pilotar.

RESUBIDO!

Ficha técnica

Video trailer de la película

Enlaces de descarga

Rip de Bluray

Descargar Top Gun: Pasión y Gloria (1986) OPEN MATTE Web-DL 1080p Latino




Aportes de DPeliculasHDmega la pass es:dpeliculashdmega.org Aportes de CinemaniaHD la pass es:cinemaniahdd.com
Guardado en : Acción , Drama , Guerra , OPEN MATTE , Romance

Películas relacionadas

  • Días De Trueno (1990) 4K UHD HDR Latino

    Días De Trueno (1990) 4K UHD HDR Latino

    1990
    Días De Trueno (1990) 4K UHD HDR Latino

    0.0 1h 47m 1990

    Descargar Días De Trueno (1990) 4K UHD HDR Latino. Cole Trickle es un joven temerario que busca en la...

    Director: Tony Scott

    Género: 4K HDR

    Actores: Tom Cruise

  • Días De Trueno (1990) 1080p Latino

    Días De Trueno (1990) 1080p Latino

    1990
    Días De Trueno (1990) 1080p Latino

    0.0 1h 47m 1990

    Descargar Días De Trueno (1990) 1080p Latino. Cole Trickle es un joven temerario que busca en la emoción...

    Director: Tony Scott

    Género: Acción

    Actores: Tom Cruise

  • Días De Trueno (1990) Full HD 1080p Latino

    Días De Trueno (1990) Full HD 1080p Latino

    1990
    Días De Trueno (1990) Full HD 1080p Latino

    0.0 1h 47m 1990

    Descargar Días De Trueno (1990) Full HD 1080p Latino. Cole Trickle es un joven temerario que busca en...

    Director: Tony Scott

    Género: Acción

    Actores: Tom Cruise

  • Días De Trueno (1990) REMUX 1080p Latino

    Días De Trueno (1990) REMUX 1080p Latino

    1990
    Días De Trueno (1990) REMUX 1080p Latino

    0.0 1h 47m 1990

    Descargar Días De Trueno (1990) REMUX 1080p Latino. Cole Trickle es un joven temerario que busca en...

    Director: Tony Scott

    Género: Acción

    Actores: Tom Cruise

  • Punto de Control (2017) 1080p Latino

    Punto de Control (2017) 1080p Latino

    2017
    Punto de Control (2017) 1080p Latino

    5.0 1h 40m 2017

    Puerto de Carolina del Norte: durante un campamento de rutina, un vagabundo local descubre planes para...

    Director: Thomas J. Churchill

    Género: Acción

    Actores: William Forsythe

Comentarios 4
  • rodolfo - 30 enero, 2018

    buena la pelicula, lastima la subiste con el segundo audio latino con el cual la doblaron despues, no hay como el audio latino original.

  • MIGUEL ANGEL - 28 enero, 2018

    Hola amigos….por favor si podrían indicar a que se refiere open mate…ya vi algunas pelis con esta denominación…..y que diferencia las WEBDL

    • Dracarys - 28 enero, 2018

      Open matte un Un formato de imagen que ocupa toda la pantalla. Asi como en las peliculas IMAX pero en este caso el 100% de la pelicula esta full pantalla es decir Sin franjas negras! Y WEB-DL es que esta descargada desde un servicio de Streaming online.

  • Tekorei - 28 enero, 2018

    Wow es completamente diferente verlo asi jaja gracias!!!!