×

¿Problemas para descargar con Mozilla, EDGE? Deshabilita la opción "Abrir vinculos en una pestaña nueva" tal como lo muestra ésta imagen.

Tomorrowland (2015) WEB-DL 4K HDR Latino – CMHDD

177 vistas

Información de Tomorrowland (2015) WEB-DL 4K HDR Latino – CMHDD

Datos de la película

  • Calidad: WEBDL
  • Audio: Español Latino AC3 5.1 BLURAY - Ingles AC3 5.1 BLURAY
  • Subtitulos: Español Latino SRT- FORZADOS SRT
  • Resolución: 3840x1600p
  • Formato: MKV
  • Codec: H.264
  • Encoder: Dracarys
  • Mediainfo: Clic para Mostrar Datos Ver
  • Format                      : Matroska
    Format version              : Version 4
    File size                   : 21.7 GiB
    Duration                    : 2 h 10 min
    Overall bit rate            : 23.9 Mb/s
    Movie name                  : Tomorrowland (2015) WEB-DL 4K HDR Latino - CMHDD
    Encoded date                : UTC 2023-12-18 04:24:37
    Writing application         : mkvmerge v47.0.0 ('Black Flag') 64-bit
    Writing library             : libebml v1.3.10 + libmatroska v1.5.2

    Video
    ID                          : 1
    Format                      : HEVC
    Format/Info                 : High Efficiency Video Coding
    Format profile              : Main 10@L5@Main
    HDR format                  : SMPTE ST 2094 App 4, Version 1, HDR10+ Profile B compatible
    Codec ID                    : V_MPEGH/ISO/HEVC
    Duration                    : 2 h 10 min
    Bit rate                    : 22.6 Mb/s
    Width                       : 3 840 pixels
    Height                      : 2 160 pixels
    Display aspect ratio        : 16:9
    Frame rate mode             : Constant
    Frame rate                  : 23.976 (24000/1001) FPS
    Color space                 : YUV
    Chroma subsampling          : 4:2:0
    Bit depth                   : 10 bits
    Bits/(Pixel*Frame)          : 0.114
    Stream size                 : 20.6 GiB (95%)
    Default                     : Yes
    Forced                      : No
    Color range                 : Limited
    Color primaries             : BT.2020
    Transfer characteristics    : PQ
    Matrix coefficients         : BT.2020 non-constant

    Audio #1
    ID                          : 2
    Format                      : AC-3
    Format/Info                 : Audio Coding 3
    Commercial name             : Dolby Digital
    Codec ID                    : A_AC3
    Duration                    : 2 h 10 min
    Bit rate mode               : Constant
    Bit rate                    : 640 kb/s
    Channel(s)                  : 6 channels
    Channel layout              : L R C LFE Ls Rs
    Sampling rate               : 48.0 kHz
    Frame rate                  : 31.250 FPS (1536 SPF)
    Compression mode            : Lossy
    Delay relative to video     : 16 ms
    Stream size                 : 595 MiB (3%)
    Language                    : Spanish
    Service kind                : Complete Main
    Default                     : Yes
    Forced                      : Yes

    Audio #2
    ID                          : 3
    Format                      : AC-3
    Format/Info                 : Audio Coding 3
    Commercial name             : Dolby Digital
    Codec ID                    : A_AC3
    Duration                    : 2 h 10 min
    Bit rate mode               : Constant
    Bit rate                    : 640 kb/s
    Channel(s)                  : 6 channels
    Channel layout              : L R C LFE Ls Rs
    Sampling rate               : 48.0 kHz
    Frame rate                  : 31.250 FPS (1536 SPF)
    Compression mode            : Lossy
    Delay relative to video     : 16 ms
    Stream size                 : 595 MiB (3%)
    Language                    : Spanish
    Service kind                : Complete Main
    Default                     : No
    Forced                      : No

    Text #1
    ID                          : 4
    Format                      : UTF-8
    Codec ID                    : S_TEXT/UTF8
    Codec ID/Info               : UTF-8 Plain Text
    Duration                    : 1 h 56 min
    Bit rate                    : 0 b/s
    Frame rate                  : 0.004 FPS
    Count of elements           : 29
    Stream size                 : 862 Bytes (0%)
    Title                       : Forzados
    Language                    : Spanish
    Default                     : Yes
    Forced                      : Yes

    Text #2
    ID                          : 5
    Format                      : UTF-8
    Codec ID                    : S_TEXT/UTF8
    Codec ID/Info               : UTF-8 Plain Text
    Duration                    : 1 h 58 min
    Bit rate                    : 48 b/s
    Frame rate                  : 0.204 FPS
    Count of elements           : 1451
    Stream size                 : 41.8 KiB (0%)
    Language                    : Spanish
    Default                     : No
    Forced                      : No

     

  • Peso: 21.7 GiB

Sinopsis

Unidos por el mismo destino, una adolescente inteligente y optimista, llena de curiosidad científica, y un antiguo niño prodigio inventor, hastiado por las desilusiones, se embarcan en una peligrosa misión para desenterrar los secretos de un enigmático lugar localizado en algún lugar del tiempo y el espacio, conocido en la memoria colectiva como “Tomorrowland”, y así salvar a la humanidad.

Ficha técnica

Video trailer de la película

Enlaces de descarga

Rip de Bluray

Descargar Tomorrowland (2015) WEB-DL 4K HDR Latino – CMHDD




Aportes de DPeliculasHDmega la pass es:dpeliculashdmega.org Aportes de CinemaniaHD la pass es:cinemaniahdd.com Aportes recientes:cinemaniahdd.net

Películas relacionadas

descargar Tomorrowland (2015) WEB-DL 4K HDR Latino – CMHDD WEBDL 1080p gratis, Tomorrowland (2015) WEB-DL 4K HDR Latino – CMHDD WEBDL mega 1 link, Tomorrowland (2015) WEB-DL 4K HDR Latino – CMHDD WEBDL pelicula completa, descargar Tomorrowland (2015) WEB-DL 4K HDR Latino – CMHDD WEBDL gratis en mega.

Tomorrowland (2015) WEB-DL 4K HDR Latino – CMHDD pelicula full hd, Tomorrowland (2015) WEB-DL 4K HDR Latino – CMHDD mega latino, Tomorrowland (2015) WEB-DL 4K HDR Latino – CMHDD 4k latino, Tomorrowland (2015) WEB-DL 4K HDR Latino – CMHDD pelicula completa, Tomorrowland (2015) WEB-DL 4K HDR Latino – CMHDD descargar gratis, descargar Tomorrowland (2015) WEB-DL 4K HDR Latino – CMHDD pelicula latino, Tomorrowland (2015) WEB-DL 4K HDR Latino – CMHDD 1 link mega, Tomorrowland (2015) WEB-DL 4K HDR Latino – CMHDD 1 link google drive, Tomorrowland (2015) WEB-DL 4K HDR Latino – CMHDD hd 1080p latino.
Comentarios 0