×

¿Problemas para descargar con Mozilla, EDGE? Deshabilita la opción "Abrir vinculos en una pestaña nueva" tal como lo muestra ésta imagen.

James Bond: El Mañana Nunca Muere (1997) REMUX 1080p Latino

415 vistas

Información de James Bond: El Mañana Nunca Muere (1997) REMUX 1080p Latino

Datos de la película

  • Calidad: Full 1080p
  • Audio: Español Latino AC3 5.1 BLURAY - Ingles DTS 5.1 BLURAY
  • Subtitulos: Español Latino PGS - Ingles PGS
  • Resolución: 1920x1080p
  • Formato: MKV
  • Codec: H.264
  • Encoder: CinefiloCool
  • Mediainfo: Clic para Mostrar Datos Ver
  • El Mañana Nunca Muere (1997) REMUX 1080p Latino-CMHDD.mkv
    Format                      : Matroska
    Format version              : Version 4
    File size                   : 25.8 GiB
    Duration                    : 1 h 59 min
    Overall bit rate mode       : Variable
    Overall bit rate            : 30.9 Mb/s
    Movie name                  : Tomorrow Never Dies (1997) CinemaniaHDD.Net
    Encoded date                : UTC 2020-06-13 03:27:36
    Writing application         : mkvmerge v46.0.0 ('No Deeper Escape') 64-bit
    Writing library             : libebml v1.3.10 + libmatroska v1.5.2
    Attachments                 : CINEMANIAHD.png

    Video
    ID                          : 1
    Format                      : AVC
    Format/Info                 : Advanced Video Codec
    Format profile              : High@L4.1
    Format settings             : CABAC / 4 Ref Frames
    Format settings, CABAC      : Yes
    Format settings, Reference  : 4 frames
    Codec ID                    : V_MPEG4/ISO/AVC
    Duration                    : 1 h 59 min
    Bit rate mode               : Variable
    Bit rate                    : 27.9 Mb/s
    Maximum bit rate            : 32.0 Mb/s
    Width                       : 1 920 pixels
    Height                      : 1 080 pixels
    Display aspect ratio        : 16:9
    Frame rate mode             : Constant
    Frame rate                  : 23.976 (24000/1001) FPS
    Color space                 : YUV
    Chroma subsampling          : 4:2:0
    Bit depth                   : 8 bits
    Scan type                   : Progressive
    Bits/(Pixel*Frame)          : 0.561
    Stream size                 : 23.3 GiB (90%)
    Title                       : REMUX 1080p [CinemaniaHDD]
    Default                     : Yes
    Forced                      : No

    Audio #1
    ID                          : 2
    Format                      : AC-3
    Format/Info                 : Audio Coding 3
    Commercial name             : Dolby Digital
    Codec ID                    : A_AC3
    Duration                    : 1 h 59 min
    Bit rate mode               : Constant
    Bit rate                    : 448 kb/s
    Channel(s)                  : 6 channels
    Channel layout              : L R C LFE Ls Rs
    Sampling rate               : 48.0 kHz
    Frame rate                  : 31.250 FPS (1536 SPF)
    Compression mode            : Lossy
    Stream size                 : 382 MiB (1%)
    Title                       : Español Latino [CinemaniaHDD]
    Language                    : Spanish
    Service kind                : Complete Main
    Default                     : Yes
    Forced                      : Yes

    Audio #2
    ID                          : 3
    Format                      : DTS XLL
    Format/Info                 : Digital Theater Systems
    Commercial name             : DTS-HD Master Audio
    Codec ID                    : A_DTS
    Duration                    : 1 h 59 min
    Bit rate mode               : Variable
    Bit rate                    : 2 550 kb/s
    Channel(s)                  : 6 channels
    Channel layout              : C L R Ls Rs LFE
    Sampling rate               : 48.0 kHz
    Frame rate                  : 93.750 FPS (512 SPF)
    Bit depth                   : 24 bits
    Compression mode            : Lossless
    Stream size                 : 2.13 GiB (8%)
    Title                       : Ingles [CinemaniaHDD]
    Language                    : English
    Default                     : No
    Forced                      : No

    Text #1
    ID                          : 4
    Format                      : PGS
    Muxing mode                 : zlib
    Codec ID                    : S_HDMV/PGS
    Codec ID/Info               : Picture based subtitle format used on BDs/HD-DVDs
    Duration                    : 1 h 58 min
    Bit rate                    : 608 b/s
    Count of elements           : 44
    Stream size                 : 528 KiB (0%)
    Title                       : Forzados-PGS [CinemaniaHDD]
    Language                    : Spanish
    Default                     : Yes
    Forced                      : Yes

    Text #2
    ID                          : 5
    Format                      : PGS
    Muxing mode                 : zlib
    Codec ID                    : S_HDMV/PGS
    Codec ID/Info               : Picture based subtitle format used on BDs/HD-DVDs
    Duration                    : 1 h 58 min
    Bit rate                    : 27.9 kb/s
    Count of elements           : 2054
    Stream size                 : 23.6 MiB (0%)
    Title                       : Español-PGS [CinemaniaHDD]
    Language                    : Spanish
    Default                     : No
    Forced                      : No

    Text #3
    ID                          : 6
    Format                      : PGS
    Muxing mode                 : zlib
    Codec ID                    : S_HDMV/PGS
    Codec ID/Info               : Picture based subtitle format used on BDs/HD-DVDs
    Duration                    : 1 h 57 min
    Bit rate                    : 28.7 kb/s
    Count of elements           : 1870
    Stream size                 : 24.2 MiB (0%)
    Title                       : Ingles-PGS [CinemaniaHDD]
    Language                    : English
    Default                     : No
    Forced                      : No

    Text #4
    ID                          : 7
    Format                      : UTF-8
    Codec ID                    : S_TEXT/UTF8
    Codec ID/Info               : UTF-8 Plain Text
    Duration                    : 1 h 58 min
    Bit rate                    : 0 b/s
    Count of elements           : 26
    Stream size                 : 870 Bytes (0%)
    Title                       : Forzados-SRT [CinemaniaHDD]
    Language                    : Spanish
    Default                     : No
    Forced                      : No

    Text #5
    ID                          : 8
    Format                      : UTF-8
    Codec ID                    : S_TEXT/UTF8
    Codec ID/Info               : UTF-8 Plain Text
    Duration                    : 1 h 54 min
    Bit rate                    : 46 b/s
    Count of elements           : 1024
    Stream size                 : 39.5 KiB (0%)
    Title                       : Español-SRT [CinemaniaHDD]
    Language                    : Spanish
    Default                     : No
    Forced                      : No

    Menu
    00:00:00.000                : en:Opening Sequence
    00:04:34.316                : en:One-Man Task Force
    00:06:36.646                : en:Back Seat Driver
    00:09:37.285                : en:Main Title
    00:12:37.131                : en:H.M.S. Devonshire
    00:15:01.400                : en:Attack of the Sea-Vac
    00:20:09.875                : en:Tomorrow's Headlines
    00:22:10.371                : en:A New Tongue for Bond
    00:27:31.233                : en:Q's New "Gadget"
    00:30:34.916                : en:The Banker
    00:32:23.608                : en:Hamburg & Paris
    00:36:29.521                : en:An Urgent Call
    00:39:19.607                : en:On & Off the Air
    00:42:09.777                : en:Paris' Yearning
    00:47:14.290                : en:Investigations
    00:50:22.686                : en:Pressing Engagement
    00:53:23.700                : en:Doctor of Death
    00:59:32.068                : en:Beamer Screamer
    01:03:39.315                : en:Underwater Rendezvous
    01:12:01.526                : en:Carver's New Headlines
    01:15:09.714                : en:Torture Tools
    01:16:43.224                : en:A Banner Fall
    01:17:53.711                : en:Back Seat Driver II
    01:24:22.349                : en:"I Work Alone"
    01:26:15.587                : en:Stopping By
    01:29:08.051                : en:Her Own "Q Branch"
    01:31:17.222                : en:Finding the Stealth
    01:34:20.989                : en:"Bond Is Dead"
    01:38:35.660                : en:Back-Up Plans
    01:43:46.178                : en:Stalking the Stealth
    01:48:43.225                : en:Carving Carver
    01:55:22.707                : en:End Credits

  • Peso: 25.8 GiB

Sinopsis

Descargar James Bond: El Mañana Nunca Muere (1997) REMUX 1080p Latino. Elliot Carver, un gran magnate de los medios de comunicación, sólo necesita conseguir los derechos de publicación en China para completar su emporio global. Su maquiavélico plan consiste en provocar una guerra entre Gran Bretaña y China, mediante el hundimiento de un buque de guerra inglés. James Bond emprenderá una misión contrarreloj para descubrir quién está detrás del peligroso incidente.

Ficha técnica

Video trailer de la película

Enlaces de descarga

Rip de Bluray

Descargar James Bond: El Mañana Nunca Muere (1997) REMUX 1080p Latino




Aportes de DPeliculasHDmega la pass es:dpeliculashdmega.org Aportes de CinemaniaHD la pass es:cinemaniahdd.com
Guardado en : Acción , Aventura , Remux , Suspenso

Películas relacionadas

  • Resurrección (2022) AMZN WEB-DL 1080p Latino

    Resurrección (2022) AMZN WEB-DL 1080p Latino

    2022
    Resurrección (2022) AMZN WEB-DL 1080p Latino

    1h 43m 2022

    Descargar Resurrección (2022) AMZN Web-DL 1080p Latino. La vida cuidadosamente construida de una mujer...

    Director: Michael Kefeyalew

    Género: Drama

    Actores: Zarra Kaahn

  • El Lobo Y El Leon (2021) HD 1080p Latino

    El Lobo Y El Leon (2021) HD 1080p Latino

    2021
    El Lobo Y El Leon (2021) HD 1080p Latino

    1h 39m 2021

    Descargar El Lobo Y El Leon (2021) HD 1080p Latino. A la muerte de su abuelo, Alma, un joven pianista...

    Director: Gilles de Maistre

    Género: Aventura

    Actores: Victor Cornfoot

  • El Lobo Y El Leon (2021) PLACEBO Full HD 1080p Latino

    El Lobo Y El Leon (2021) PLACEBO Full HD 1080p Latino

    2021
    El Lobo Y El Leon (2021) PLACEBO Full HD 1080p Latino

    1h 39m 2021

    Descargar El Lobo Y El Leon (2021) PLACEBO Full HD 1080p Latino. A la muerte de su abuelo, Alma, un joven...

    Director: Gilles de Maistre

    Género: Aventura

    Actores: Victor Cornfoot

  • El Lobo Y El Leon (2021) REMUX 1080p Latino

    El Lobo Y El Leon (2021) REMUX 1080p Latino

    2021
    El Lobo Y El Leon (2021) REMUX 1080p Latino

    1h 39m 2021

    Descargar El Lobo Y El Leon (2021) REMUX 1080p Latino. A la muerte de su abuelo, Alma, un joven pianista...

    Director: Gilles de Maistre

    Género: Aventura

    Actores: Victor Cornfoot

  • Plan De Estudios (2022) NF WEB-DL 1080p Latino

    Plan De Estudios (2022) NF WEB-DL 1080p Latino

    2022
    Plan De Estudios (2022) NF WEB-DL 1080p Latino

    1h 41m 2022

    Un expolicía empieza a trabajar en el instituto en el que su difunto mejor amigo daba clase para enfrentarse...

    Director: Daniel Markowicz

    Género: Crimen

    Actores: Zuzanna Galewicz

descargar James Bond: El Mañana Nunca Muere (1997) REMUX 1080p Latino Full 1080p 1080p gratis, James Bond: El Mañana Nunca Muere (1997) REMUX 1080p Latino Full 1080p mega 1 link, James Bond: El Mañana Nunca Muere (1997) REMUX 1080p Latino Full 1080p pelicula completa, descargar James Bond: El Mañana Nunca Muere (1997) REMUX 1080p Latino Full 1080p gratis en mega.

James Bond: El Mañana Nunca Muere (1997) REMUX 1080p Latino pelicula full hd, James Bond: El Mañana Nunca Muere (1997) REMUX 1080p Latino mega latino, James Bond: El Mañana Nunca Muere (1997) REMUX 1080p Latino 4k latino, James Bond: El Mañana Nunca Muere (1997) REMUX 1080p Latino pelicula completa, James Bond: El Mañana Nunca Muere (1997) REMUX 1080p Latino descargar gratis, descargar James Bond: El Mañana Nunca Muere (1997) REMUX 1080p Latino pelicula latino, James Bond: El Mañana Nunca Muere (1997) REMUX 1080p Latino 1 link mega, James Bond: El Mañana Nunca Muere (1997) REMUX 1080p Latino 1 link google drive, James Bond: El Mañana Nunca Muere (1997) REMUX 1080p Latino hd 1080p latino.
Comentarios 1
  • ocpgaiden - 15 junio, 2020

    Gracias por 007 el mañana nunca muere bdremux, saludos