×

¿Problemas para descargar con Mozilla, EDGE? Deshabilita la opción "Abrir vinculos en una pestaña nueva" tal como lo muestra ésta imagen.

James Bond: El Mañana Nunca Muere (1997) 1080p Latino

346 vistas

Información de James Bond: El Mañana Nunca Muere (1997) 1080p Latino

Datos de la película

  • Calidad: 1080p
  • Audio: Español Latino AC3 5.1 BLURAY - Ingles AC3 5.1 BLURAY
  • Subtitulos: Español Latino SRT - Ingles SRT
  • Resolución: 1920x818p
  • Formato: MKV
  • Codec: H.264
  • Encoder: CinefiloCool
  • Mediainfo: Clic para Mostrar Datos Ver
  • El Mañana Nunca Muere (1997) 1080p Latino-CMHDD.mkv
    Format                      : Matroska
    Format version              : Version 4
    File size                   : 4.32 GiB
    Duration                    : 1 h 59 min
    Overall bit rate mode       : Variable
    Overall bit rate            : 5 178 kb/s
    Movie name                  : Tomorrow Never Dies (1997) CinemaniaHDD.Net
    Encoded date                : UTC 2020-06-13 03:36:51
    Writing application         : mkvmerge v46.0.0 ('No Deeper Escape') 64-bit
    Writing library             : libebml v1.3.10 + libmatroska v1.5.2
    Attachments                 : CINEMANIAHD.png

    Video
    ID                          : 1
    Format                      : AVC
    Format/Info                 : Advanced Video Codec
    Format profile              : High@L4
    Format settings             : CABAC / 3 Ref Frames
    Format settings, CABAC      : Yes
    Format settings, Reference  : 3 frames
    Codec ID                    : V_MPEG4/ISO/AVC
    Duration                    : 1 h 59 min
    Bit rate mode               : Variable
    Bit rate                    : 4 096 kb/s
    Width                       : 1 920 pixels
    Height                      : 818 pixels
    Display aspect ratio        : 2.35:1
    Frame rate mode             : Constant
    Frame rate                  : 23.976 (24000/1001) FPS
    Color space                 : YUV
    Chroma subsampling          : 4:2:0
    Bit depth                   : 8 bits
    Scan type                   : Progressive
    Bits/(Pixel*Frame)          : 0.109
    Stream size                 : 3.41 GiB (79%)
    Title                       : HD1080p [CinemaniaHDD]
    Writing library             : x264 core 142 r2479 dd79a61
    Encoding settings           : cabac=1 / ref=3 / deblock=1:0:0 / analyse=0x3:0x113 / me=hex / subme=7 / psy=1 / psy_rd=1.00:0.00 / mixed_ref=1 / me_range=16 / chroma_me=1 / trellis=1 / 8x8dct=1 / cqm=0 / deadzone=21,11 / fast_pskip=1 / chroma_qp_offset=-2 / threads=6 / lookahead_threads=1 / sliced_threads=0 / nr=0 / decimate=1 / interlaced=0 / bluray_compat=0 / constrained_intra=0 / bframes=3 / b_pyramid=0 / b_adapt=1 / b_bias=0 / direct=1 / weightb=1 / open_gop=0 / weightp=2 / keyint=240 / keyint_min=24 / scenecut=40 / intra_refresh=0 / rc_lookahead=40 / rc=2pass / mbtree=1 / bitrate=4096 / ratetol=1.0 / qcomp=0.60 / qpmin=0 / qpmax=69 / qpstep=4 / cplxblur=20.0 / qblur=0.5 / vbv_maxrate=25000 / vbv_bufsize=25000 / nal_hrd=vbr / filler=0 / ip_ratio=1.40 / aq=1:1.00
    Default                     : Yes
    Forced                      : No

    Audio #1
    ID                          : 2
    Format                      : AC-3
    Format/Info                 : Audio Coding 3
    Commercial name             : Dolby Digital
    Codec ID                    : A_AC3
    Duration                    : 1 h 59 min
    Bit rate mode               : Constant
    Bit rate                    : 448 kb/s
    Channel(s)                  : 6 channels
    Channel layout              : L R C LFE Ls Rs
    Sampling rate               : 48.0 kHz
    Frame rate                  : 31.250 FPS (1536 SPF)
    Compression mode            : Lossy
    Stream size                 : 382 MiB (9%)
    Title                       : Español Latino [CinemaniaHDD]
    Language                    : Spanish
    Service kind                : Complete Main
    Default                     : Yes
    Forced                      : Yes

    Audio #2
    ID                          : 3
    Format                      : AC-3
    Format/Info                 : Audio Coding 3
    Commercial name             : Dolby Digital
    Codec ID                    : A_AC3
    Duration                    : 1 h 59 min
    Bit rate mode               : Constant
    Bit rate                    : 640 kb/s
    Channel(s)                  : 6 channels
    Channel layout              : L R C LFE Ls Rs
    Sampling rate               : 48.0 kHz
    Frame rate                  : 31.250 FPS (1536 SPF)
    Compression mode            : Lossy
    Stream size                 : 546 MiB (12%)
    Title                       : Ingles [CinemaniaHDD]
    Language                    : English
    Service kind                : Complete Main
    Default                     : No
    Forced                      : No

    Text #1
    ID                          : 4
    Format                      : UTF-8
    Codec ID                    : S_TEXT/UTF8
    Codec ID/Info               : UTF-8 Plain Text
    Duration                    : 1 h 58 min
    Bit rate                    : 0 b/s
    Count of elements           : 26
    Stream size                 : 870 Bytes (0%)
    Title                       : Forzados-SRT [CinemaniaHDD]
    Language                    : Spanish
    Default                     : Yes
    Forced                      : No

    Text #2
    ID                          : 5
    Format                      : UTF-8
    Codec ID                    : S_TEXT/UTF8
    Codec ID/Info               : UTF-8 Plain Text
    Duration                    : 1 h 54 min
    Bit rate                    : 46 b/s
    Count of elements           : 1024
    Stream size                 : 39.5 KiB (0%)
    Title                       : Español-SRT [CinemaniaHDD]
    Language                    : Spanish
    Default                     : No
    Forced                      : No

    Text #3
    ID                          : 6
    Format                      : UTF-8
    Codec ID                    : S_TEXT/UTF8
    Codec ID/Info               : UTF-8 Plain Text
    Duration                    : 1 h 57 min
    Bit rate                    : 48 b/s
    Count of elements           : 995
    Stream size                 : 42.1 KiB (0%)
    Title                       : Ingles-SRT [CinemaniaHDD]
    Language                    : English
    Default                     : No
    Forced                      : No

    Menu
    00:00:00.000                : en:Opening Sequence
    00:04:34.316                : en:One-Man Task Force
    00:06:36.646                : en:Back Seat Driver
    00:09:37.285                : en:Main Title
    00:12:37.131                : en:H.M.S. Devonshire
    00:15:01.400                : en:Attack of the Sea-Vac
    00:20:09.875                : en:Tomorrow's Headlines
    00:22:10.371                : en:A New Tongue for Bond
    00:27:31.233                : en:Q's New "Gadget"
    00:30:34.916                : en:The Banker
    00:32:23.608                : en:Hamburg & Paris
    00:36:29.521                : en:An Urgent Call
    00:39:19.607                : en:On & Off the Air
    00:42:09.777                : en:Paris' Yearning
    00:47:14.290                : en:Investigations
    00:50:22.686                : en:Pressing Engagement
    00:53:23.700                : en:Doctor of Death
    00:59:32.068                : en:Beamer Screamer
    01:03:39.315                : en:Underwater Rendezvous
    01:12:01.526                : en:Carver's New Headlines
    01:15:09.714                : en:Torture Tools
    01:16:43.224                : en:A Banner Fall
    01:17:53.711                : en:Back Seat Driver II
    01:24:22.349                : en:"I Work Alone"
    01:26:15.587                : en:Stopping By
    01:29:08.051                : en:Her Own "Q Branch"
    01:31:17.222                : en:Finding the Stealth
    01:34:20.989                : en:"Bond Is Dead"
    01:38:35.660                : en:Back-Up Plans
    01:43:46.178                : en:Stalking the Stealth
    01:48:43.225                : en:Carving Carver
    01:55:22.707                : en:End Credits

  • Peso: 4.32 GiB

Sinopsis

Descargar James Bond: El Mañana Nunca Muere (1997) 1080p Latino. Elliot Carver, un gran magnate de los medios de comunicación, sólo necesita conseguir los derechos de publicación en China para completar su emporio global. Su maquiavélico plan consiste en provocar una guerra entre Gran Bretaña y China, mediante el hundimiento de un buque de guerra inglés. James Bond emprenderá una misión contrarreloj para descubrir quién está detrás del peligroso incidente.

Ficha técnica

Video trailer de la película

Enlaces de descarga

Rip de Bluray

Descargar James Bond: El Mañana Nunca Muere (1997) 1080p Latino




Aportes de DPeliculasHDmega la pass es:dpeliculashdmega.org Aportes de CinemaniaHD la pass es:cinemaniahdd.com
Guardado en : Acción , Aventura , HD 1080p , Suspenso

Películas relacionadas

  • Zola (2020) HD 1080p Latino

    Zola (2020) HD 1080p Latino

    2020
    Zola (2020) HD 1080p Latino

    1h 26m 2020

    Descargar Zola (2020) HD 1080p Latino. Una camarera accede a acompañar a una bailarina exótica, su...

    Director: Sheri Davani

    Género: Comedia

    Actores: Ts Madison

  • Hocus Pocus: Abracadabra (1993) 1080p Latino

    Hocus Pocus: Abracadabra (1993) 1080p Latino

    1993
    Hocus Pocus: Abracadabra (1993) 1080p Latino

    1h 36m 1993

    Descargar Hocus Pocus: Abracadabra (1993) 1080p Latino. Tres brujas del siglo XII son invocadas durante...

    Director: Kenny Ortega

    Género: Comedia

    Actores: Vinessa Shaw

  • DC Liga De Supermascotas (2022) HD 1080p Latino

    DC Liga De Supermascotas (2022) HD 1080p Latino

    2022
    DC Liga De Supermascotas (2022) HD 1080p Latino

    1h 45m 2022

    Descargar DC Liga De Supermascotas (2022) HD 1080p Latino. Krypto el Superperro y Superman son amigos...

    Director: Sam Levine

    Género: Acción

    Actores: Yvette Nicole Brown

descargar James Bond: El Mañana Nunca Muere (1997) 1080p Latino 1080p 1080p gratis, James Bond: El Mañana Nunca Muere (1997) 1080p Latino 1080p mega 1 link, James Bond: El Mañana Nunca Muere (1997) 1080p Latino 1080p pelicula completa, descargar James Bond: El Mañana Nunca Muere (1997) 1080p Latino 1080p gratis en mega.

James Bond: El Mañana Nunca Muere (1997) 1080p Latino pelicula full hd, James Bond: El Mañana Nunca Muere (1997) 1080p Latino mega latino, James Bond: El Mañana Nunca Muere (1997) 1080p Latino 4k latino, James Bond: El Mañana Nunca Muere (1997) 1080p Latino pelicula completa, James Bond: El Mañana Nunca Muere (1997) 1080p Latino descargar gratis, descargar James Bond: El Mañana Nunca Muere (1997) 1080p Latino pelicula latino, James Bond: El Mañana Nunca Muere (1997) 1080p Latino 1 link mega, James Bond: El Mañana Nunca Muere (1997) 1080p Latino 1 link google drive, James Bond: El Mañana Nunca Muere (1997) 1080p Latino hd 1080p latino.
Comentarios 0