×

¿Problemas para descargar con Mozilla, EDGE? Deshabilita la opción "Abrir vinculos en una pestaña nueva" tal como lo muestra ésta imagen.

James Bond: El Mañana Nunca Muere (1997) Full HD 1080p Latino

1.275 vistas

Información de James Bond: El Mañana Nunca Muere (1997) Full HD 1080p Latino

Datos de la película

  • Calidad: Full 1080p
  • Audio: Español Latino AC3 5.1 BLURAY - Ingles DTS 5.1 BLURAY
  • Subtitulos: Español Latino PGS - Ingles PGS
  • Resolución: 1920x108p
  • Formato: MKV
  • Codec: H.264
  • Encoder: Dracarys
  • Mediainfo: Clic para Mostrar Datos Ver
  • El Mañana Nunca Muere (1997) Full HD 1080p Latino-CMHDD.mkv
    Format                      : Matroska
    Format version              : Version 4
    File size                   : 8.09 GiB
    Duration                    : 1 h 59 min
    Overall bit rate            : 9 702 kb/s
    Movie name                  : Tomorrow Never Dies (1997) CinemaniaHDD.Net
    Encoded date                : UTC 2020-06-13 03:18:49
    Writing application         : mkvmerge v46.0.0 ('No Deeper Escape') 64-bit
    Writing library             : libebml v1.3.10 + libmatroska v1.5.2
    Attachments                 : CINEMANIAHD.png

    Video
    ID                          : 1
    Format                      : AVC
    Format/Info                 : Advanced Video Codec
    Format profile              : High@L4.1
    Format settings             : CABAC / 4 Ref Frames
    Format settings, CABAC      : Yes
    Format settings, Reference  : 4 frames
    Codec ID                    : V_MPEG4/ISO/AVC
    Duration                    : 1 h 59 min
    Bit rate                    : 7 726 kb/s
    Width                       : 1 920 pixels
    Height                      : 1 080 pixels
    Display aspect ratio        : 16:9
    Frame rate mode             : Constant
    Frame rate                  : 23.976 (24000/1001) FPS
    Color space                 : YUV
    Chroma subsampling          : 4:2:0
    Bit depth                   : 8 bits
    Scan type                   : Progressive
    Bits/(Pixel*Frame)          : 0.155
    Stream size                 : 6.44 GiB (80%)
    Title                       : Full HD1080p [CinemaniaHDD]
    Writing library             : x264 core 148 r2708 86b7198
    Encoding settings           : cabac=1 / ref=4 / deblock=1:0:0 / analyse=0x3:0x133 / me=esa / subme=10 / psy=1 / psy_rd=1.00:0.00 / mixed_ref=1 / me_range=24 / chroma_me=1 / trellis=2 / 8x8dct=1 / cqm=0 / deadzone=21,11 / fast_pskip=1 / chroma_qp_offset=-2 / threads=34 / lookahead_threads=5 / sliced_threads=0 / nr=0 / decimate=1 / interlaced=0 / bluray_compat=0 / constrained_intra=0 / bframes=8 / b_pyramid=2 / b_adapt=2 / b_bias=0 / direct=3 / weightb=1 / open_gop=0 / weightp=2 / keyint=240 / keyint_min=24 / scenecut=40 / intra_refresh=0 / rc_lookahead=60 / rc=crf / mbtree=1 / crf=20.0 / qcomp=0.60 / qpmin=0 / qpmax=69 / qpstep=4 / vbv_maxrate=62500 / vbv_bufsize=78125 / crf_max=0.0 / nal_hrd=none / filler=0 / ip_ratio=1.40 / aq=1:1.00
    Language                    : English
    Default                     : Yes
    Forced                      : No
    Color range                 : Limited
    Color primaries             : BT.709
    Transfer characteristics    : BT.709
    Matrix coefficients         : BT.709

    Audio #1
    ID                          : 2
    Format                      : AC-3
    Format/Info                 : Audio Coding 3
    Commercial name             : Dolby Digital
    Codec ID                    : A_AC3
    Duration                    : 1 h 59 min
    Bit rate mode               : Constant
    Bit rate                    : 448 kb/s
    Channel(s)                  : 6 channels
    Channel layout              : L R C LFE Ls Rs
    Sampling rate               : 48.0 kHz
    Frame rate                  : 31.250 FPS (1536 SPF)
    Compression mode            : Lossy
    Stream size                 : 382 MiB (5%)
    Title                       : Español Latino [CinemaniaHDD]
    Language                    : Spanish
    Service kind                : Complete Main
    Default                     : Yes
    Forced                      : No

    Audio #2
    ID                          : 3
    Format                      : DTS
    Format/Info                 : Digital Theater Systems
    Codec ID                    : A_DTS
    Duration                    : 1 h 59 min
    Bit rate mode               : Constant
    Bit rate                    : 1 509 kb/s
    Channel(s)                  : 6 channels
    Channel layout              : C L R Ls Rs LFE
    Sampling rate               : 48.0 kHz
    Frame rate                  : 93.750 FPS (512 SPF)
    Bit depth                   : 24 bits
    Compression mode            : Lossy
    Stream size                 : 1.26 GiB (16%)
    Title                       : Ingles [CinemaniaHDD]
    Language                    : English
    Default                     : No
    Forced                      : No

    Text #1
    ID                          : 4
    Format                      : PGS
    Muxing mode                 : zlib
    Codec ID                    : S_HDMV/PGS
    Codec ID/Info               : Picture based subtitle format used on BDs/HD-DVDs
    Duration                    : 1 h 58 min
    Bit rate                    : 608 b/s
    Count of elements           : 44
    Stream size                 : 528 KiB (0%)
    Title                       : Forzados-PGS [CinemaniaHDD]
    Language                    : Spanish
    Default                     : Yes
    Forced                      : No

    Text #2
    ID                          : 5
    Format                      : PGS
    Muxing mode                 : zlib
    Codec ID                    : S_HDMV/PGS
    Codec ID/Info               : Picture based subtitle format used on BDs/HD-DVDs
    Duration                    : 1 h 58 min
    Bit rate                    : 27.9 kb/s
    Count of elements           : 2054
    Stream size                 : 23.6 MiB (0%)
    Title                       : Español-PGS [CinemaniaHDD]
    Language                    : Spanish
    Default                     : No
    Forced                      : No

    Text #3
    ID                          : 6
    Format                      : PGS
    Muxing mode                 : zlib
    Codec ID                    : S_HDMV/PGS
    Codec ID/Info               : Picture based subtitle format used on BDs/HD-DVDs
    Duration                    : 1 h 58 min
    Bit rate                    : 29.7 kb/s
    Count of elements           : 1996
    Stream size                 : 25.2 MiB (0%)
    Title                       : Ingles-PGS [CinemaniaHDD]
    Language                    : English
    Default                     : No
    Forced                      : No

    Text #4
    ID                          : 7
    Format                      : UTF-8
    Codec ID                    : S_TEXT/UTF8
    Codec ID/Info               : UTF-8 Plain Text
    Duration                    : 1 h 58 min
    Bit rate                    : 0 b/s
    Count of elements           : 26
    Stream size                 : 870 Bytes (0%)
    Title                       : Forzados-SRT [CinemaniaHDD]
    Language                    : Spanish
    Default                     : No
    Forced                      : No

    Text #5
    ID                          : 8
    Format                      : UTF-8
    Codec ID                    : S_TEXT/UTF8
    Codec ID/Info               : UTF-8 Plain Text
    Duration                    : 1 h 54 min
    Bit rate                    : 46 b/s
    Count of elements           : 1024
    Stream size                 : 39.5 KiB (0%)
    Title                       : Español-SRT [CinemaniaHDD]
    Language                    : Spanish
    Default                     : No
    Forced                      : No

    Menu
    00:00:00.000                : :Chapter 1
    00:04:34.316                : :Chapter 2
    00:06:36.646                : :Chapter 3
    00:09:36.618                : :Chapter 4
    00:12:36.923                : :Chapter 5
    00:15:01.401                : :Chapter 6
    00:20:09.875                : :Chapter 7
    00:22:10.371                : :Chapter 8
    00:27:31.233                : :Chapter 9
    00:30:34.916                : :Chapter 10
    00:32:23.608                : :Chapter 11
    00:36:29.521                : :Chapter 12
    00:39:19.607                : :Chapter 13
    00:42:09.777                : :Chapter 14
    00:47:14.290                : :Chapter 15
    00:50:22.686                : :Chapter 16
    00:53:23.701                : :Chapter 17
    00:59:32.069                : :Chapter 18
    01:03:39.316                : :Chapter 19
    01:12:01.526                : :Chapter 20
    01:15:09.714                : :Chapter 21
    01:16:43.224                : :Chapter 22
    01:17:53.335                : :Chapter 23
    01:24:21.598                : :Chapter 24
    01:26:15.587                : :Chapter 25
    01:29:08.051                : :Chapter 26
    01:31:17.222                : :Chapter 27
    01:34:20.989                : :Chapter 28
    01:38:35.660                : :Chapter 29
    01:43:46.178                : :Chapter 30
    01:48:43.225                : :Chapter 31
    01:55:22.707                : :Chapter 32

  • Peso: 8.09 GiB

Sinopsis

Descargar James Bond: El Mañana Nunca Muere (1997) Full HD 1080p Latino. Elliot Carver, un gran magnate de los medios de comunicación, sólo necesita conseguir los derechos de publicación en China para completar su emporio global. Su maquiavélico plan consiste en provocar una guerra entre Gran Bretaña y China, mediante el hundimiento de un buque de guerra inglés. James Bond emprenderá una misión contrarreloj para descubrir quién está detrás del peligroso incidente.

RESUBIDO!

Ficha técnica

Video trailer de la película

Enlaces de descarga

Rip de Bluray

Descargar James Bond: El Mañana Nunca Muere (1997) Full HD 1080p Latino




Aportes de DPeliculasHDmega la pass es:dpeliculashdmega.org Aportes de CinemaniaHD la pass es:cinemaniahdd.com

Películas relacionadas

descargar James Bond: El Mañana Nunca Muere (1997) Full HD 1080p Latino Full 1080p 1080p gratis, James Bond: El Mañana Nunca Muere (1997) Full HD 1080p Latino Full 1080p mega 1 link, James Bond: El Mañana Nunca Muere (1997) Full HD 1080p Latino Full 1080p pelicula completa, descargar James Bond: El Mañana Nunca Muere (1997) Full HD 1080p Latino Full 1080p gratis en mega.

James Bond: El Mañana Nunca Muere (1997) Full HD 1080p Latino pelicula full hd, James Bond: El Mañana Nunca Muere (1997) Full HD 1080p Latino mega latino, James Bond: El Mañana Nunca Muere (1997) Full HD 1080p Latino 4k latino, James Bond: El Mañana Nunca Muere (1997) Full HD 1080p Latino pelicula completa, James Bond: El Mañana Nunca Muere (1997) Full HD 1080p Latino descargar gratis, descargar James Bond: El Mañana Nunca Muere (1997) Full HD 1080p Latino pelicula latino, James Bond: El Mañana Nunca Muere (1997) Full HD 1080p Latino 1 link mega, James Bond: El Mañana Nunca Muere (1997) Full HD 1080p Latino 1 link google drive, James Bond: El Mañana Nunca Muere (1997) Full HD 1080p Latino hd 1080p latino.
Comentarios 2
  • ocpgaiden - 15 junio, 2020

    Gracias por resubir 007 el mañana nunca muere, saludos

  • ocpgaiden - 02 agosto, 2018

    gracias por la pelicula, saludos