×

¿Problemas para descargar con Mozilla, EDGE? Deshabilita la opción "Abrir vinculos en una pestaña nueva" tal como lo muestra ésta imagen.

Tom y Jerry en la Tierra de Nieve (2022) AMZN WEB-DL 1080p Latino

14 vistas

Información de Tom y Jerry en la Tierra de Nieve (2022) AMZN WEB-DL 1080p Latino

Datos de la película

  • Calidad: WEBDL
  • Audio: Español Latino AC3 5.1 WEB-DL - Ingles AC3 5.1 WEB-DL
  • Subtitulos: FORZADOS SRT
  • Resolución: 1920x1080p
  • Formato: MKV
  • Codec: H.264
  • Encoder: Melkor
  • Mediainfo: Clic para Mostrar Datos Ver
  • Tom y Jerry en la tierra de nieve (2022) AMZN WebDL 1080p Latino.mkv
    Format                      : Matroska
    Format version              : Version 4
    File size                   : 2.54 GiB
    Duration                    : 1 h 15 min
    Overall bit rate            : 4 784 kb/s
    Movie name                  : Tom And Jerry Snowman's Land (2022) CinemaniaHDD.Net
    Encoded date                : UTC 2022-11-18 02:08:20
    Writing application         : mkvmerge v56.1.0 ('My Friend') 64-bit
    Writing library             : libebml v1.4.2 + libmatroska v1.6.4

    Video
    ID                          : 1
    Format                      : AVC
    Format/Info                 : Advanced Video Codec
    Format profile              : High@L4
    Format settings             : CABAC / 4 Ref Frames
    Format settings, CABAC      : Yes
    Format settings, Reference  : 4 frames
    Codec ID                    : V_MPEG4/ISO/AVC
    Duration                    : 1 h 15 min
    Bit rate mode               : Constant
    Bit rate                    : 3 759 kb/s
    Nominal bit rate            : 10 000 kb/s
    Width                       : 1 920 pixels
    Height                      : 1 080 pixels
    Display aspect ratio        : 16:9
    Frame rate mode             : Constant
    Frame rate                  : 23.976 (24000/1001) FPS
    Color space                 : YUV
    Chroma subsampling          : 4:2:0
    Bit depth                   : 8 bits
    Scan type                   : Progressive
    Bits/(Pixel*Frame)          : 0.076
    Stream size                 : 1.99 GiB (79%)
    Title                       : Web HD1080p [CinemaniaHDD]
    Default                     : Yes
    Forced                      : Yes
    Color range                 : Limited
    Color primaries             : BT.709
    Transfer characteristics    : BT.709
    Matrix coefficients         : BT.709

    Audio #1
    ID                          : 2
    Format                      : AC-3
    Format/Info                 : Audio Coding 3
    Commercial name             : Dolby Digital
    Codec ID                    : A_AC3
    Duration                    : 1 h 15 min
    Bit rate mode               : Constant
    Bit rate                    : 384 kb/s
    Channel(s)                  : 6 channels
    Channel layout              : L R C LFE Ls Rs
    Sampling rate               : 48.0 kHz
    Frame rate                  : 31.250 FPS (1536 SPF)
    Compression mode            : Lossy
    Delay relative to video     : 426 ms
    Stream size                 : 208 MiB (8%)
    Title                       : Español Latino [CinemaniaHDD]
    Language                    : Spanish
    Service kind                : Complete Main
    Default                     : Yes
    Forced                      : Yes

    Audio #2
    ID                          : 3
    Format                      : E-AC-3
    Format/Info                 : Enhanced AC-3
    Commercial name             : Dolby Digital Plus
    Codec ID                    : A_EAC3
    Duration                    : 1 h 15 min
    Bit rate mode               : Constant
    Bit rate                    : 640 kb/s
    Channel(s)                  : 6 channels
    Channel layout              : L R C LFE Ls Rs
    Sampling rate               : 48.0 kHz
    Frame rate                  : 31.250 FPS (1536 SPF)
    Compression mode            : Lossy
    Stream size                 : 347 MiB (13%)
    Title                       : Ingles [CinemaniaHDD]
    Language                    : English
    Service kind                : Complete Main
    Default                     : No
    Forced                      : No

    Text #1
    ID                          : 4
    Format                      : UTF-8
    Codec ID                    : S_TEXT/UTF8
    Codec ID/Info               : UTF-8 Plain Text
    Duration                    : 21 min 22 s
    Bit rate                    : 0 b/s
    Count of elements           : 2
    Stream size                 : 36.0 Bytes (0%)
    Title                       : Forzados-SRT [CinemaniaHDD]
    Language                    : Spanish
    Default                     : Yes
    Forced                      : Yes

    Text #2
    ID                          : 5
    Format                      : UTF-8
    Codec ID                    : S_TEXT/UTF8
    Codec ID/Info               : UTF-8 Plain Text
    Duration                    : 1 h 14 min
    Bit rate                    : 69 b/s
    Count of elements           : 1218
    Stream size                 : 37.8 KiB (0%)
    Title                       : Ingles-SRT [CinemaniaHDD]
    Language                    : English
    Default                     : No
    Forced                      : No

  • Peso: 2.54 GiB

Sinopsis

Descargar Tom y Jerry en la Tierra de Nieve (2022) AMZN WEB-DL 1080p Latino. ¡Es hora de perseguir ese espíritu navideño con Tom y Jerry! Con magia en el aire, Jerry y su sobrino, Tuffy, hacen un ratón de nieve que mágicamente cobra vida. Para evitar que su nuevo amigo Larry, el ratón de nieve, se derrita, Tuffy y Jerry deben llevarlo a la legendaria Aldea del Hombre de Nieve. En una persecución frenética, Tom y el ladino Dr. Doublevay tienen sus propios planes para la magia de Larry. ¡Prepárate para ir a toda carrera a través de esta historia épica llena de canciones, nieve, emociones, risas e incluso un poco de magia navideña!

Ficha técnica

Video trailer de la película

Enlaces de descarga

Rip de Bluray

Descargar Tom y Jerry en la Tierra de Nieve (2022) AMZN WEB-DL 1080p Latino




Aportes de DPeliculasHDmega la pass es:dpeliculashdmega.org Aportes de CinemaniaHD la pass es:cinemaniahdd.com
Guardado en : Animación , Aventura , Comedia , Familia

Películas relacionadas

descargar Tom y Jerry en la Tierra de Nieve (2022) AMZN WEB-DL 1080p Latino WEBDL 1080p gratis, Tom y Jerry en la Tierra de Nieve (2022) AMZN WEB-DL 1080p Latino WEBDL mega 1 link, Tom y Jerry en la Tierra de Nieve (2022) AMZN WEB-DL 1080p Latino WEBDL pelicula completa, descargar Tom y Jerry en la Tierra de Nieve (2022) AMZN WEB-DL 1080p Latino WEBDL gratis en mega.

Tom y Jerry en la Tierra de Nieve (2022) AMZN WEB-DL 1080p Latino pelicula full hd, Tom y Jerry en la Tierra de Nieve (2022) AMZN WEB-DL 1080p Latino mega latino, Tom y Jerry en la Tierra de Nieve (2022) AMZN WEB-DL 1080p Latino 4k latino, Tom y Jerry en la Tierra de Nieve (2022) AMZN WEB-DL 1080p Latino pelicula completa, Tom y Jerry en la Tierra de Nieve (2022) AMZN WEB-DL 1080p Latino descargar gratis, descargar Tom y Jerry en la Tierra de Nieve (2022) AMZN WEB-DL 1080p Latino pelicula latino, Tom y Jerry en la Tierra de Nieve (2022) AMZN WEB-DL 1080p Latino 1 link mega, Tom y Jerry en la Tierra de Nieve (2022) AMZN WEB-DL 1080p Latino 1 link google drive, Tom y Jerry en la Tierra de Nieve (2022) AMZN WEB-DL 1080p Latino hd 1080p latino.
Comentarios 0