Tom y Jerry (2021) PLACEBO Full HD 1080p Latino

28 vistas
1 estrella2 estrellas3 estrellas4 estrellas5 estrellas (1 votos, promedio: 5,00 de 5)
Cargando...

Información de Tom y Jerry (2021) PLACEBO Full HD 1080p Latino

Datos de la película

  • Calidad: Full 1080p
  • Audio: Se especifica abajo de la Sinopsis
  • Subtitulos: Español Latino SRT- FORZADOS SRT
  • Resolución: 1920x1080p
  • Formato: MKV
  • Codec: H.264
  • Encoder: Melkor
  • Mediainfo: Clic para Mostrar Datos Ver
  • Tom Y Jerry (2021) PLACEBO 1080p Latino.mkv
    Format                      : Matroska
    Format version              : Version 4
    File size                   : 8.68 GiB
    Duration                    : 1 h 41 min
    Overall bit rate mode       : Variable
    Overall bit rate            : 12.3 Mb/s
    Movie name                  : Tom And Jerry (2021) CinemaniaHDD.Net
    Encoded date                : UTC 2021-05-01 03:35:30
    Writing application         : mkvmerge v56.1.0 ('My Friend') 64-bit
    Writing library             : libebml v1.4.2 + libmatroska v1.6.4
    Attachments                 : CINEMANIAHD.png

    Video
    ID                          : 1
    Format                      : AVC
    Format/Info                 : Advanced Video Codec
    Format profile              : High@L4.1
    Format settings             : CABAC / 4 Ref Frames
    Format settings, CABAC      : Yes
    Format settings, Reference  : 4 frames
    Codec ID                    : V_MPEG4/ISO/AVC
    Duration                    : 1 h 41 min
    Bit rate                    : 8 315 kb/s
    Width                       : 1 920 pixels
    Height                      : 1 080 pixels
    Display aspect ratio        : 16:9
    Frame rate mode             : Constant
    Frame rate                  : 23.976 (24000/1001) FPS
    Color space                 : YUV
    Chroma subsampling          : 4:2:0
    Bit depth                   : 8 bits
    Scan type                   : Progressive
    Bits/(Pixel*Frame)          : 0.167
    Stream size                 : 5.87 GiB (68%)
    Title                       : Full HD1080p [CinemaniaHDD]
    Writing library             : x264 core 157 r2935 545de2f
    Encoding settings           : cabac=1 / ref=4 / deblock=1:0:0 / analyse=0x3:0x133 / me=tesa / subme=11 / psy=1 / psy_rd=1.00:0.00 / mixed_ref=1 / me_range=24 / chroma_me=1 / trellis=2 / 8x8dct=1 / cqm=0 / deadzone=21,11 / fast_pskip=0 / chroma_qp_offset=-2 / threads=24 / lookahead_threads=6 / sliced_threads=0 / nr=0 / decimate=1 / interlaced=0 / bluray_compat=0 / constrained_intra=0 / bframes=16 / b_pyramid=2 / b_adapt=2 / b_bias=0 / direct=3 / weightb=1 / open_gop=0 / weightp=2 / keyint=240 / keyint_min=24 / scenecut=40 / intra_refresh=0 / rc_lookahead=60 / rc=crf / mbtree=1 / crf=19.0 / qcomp=0.60 / qpmin=0 / qpmax=69 / qpstep=4 / vbv_maxrate=62500 / vbv_bufsize=78125 / crf_max=0.0 / nal_hrd=none / filler=0 / ip_ratio=1.40 / aq=1:1.00
    Default                     : Yes
    Forced                      : Yes
    Color range                 : Limited
    Color primaries             : BT.709
    Transfer characteristics    : BT.709
    Matrix coefficients         : BT.709

    Audio #1
    ID                          : 2
    Format                      : AC-3
    Format/Info                 : Audio Coding 3
    Commercial name             : Dolby Digital
    Codec ID                    : A_AC3
    Duration                    : 1 h 41 min
    Bit rate mode               : Constant
    Bit rate                    : 384 kb/s
    Channel(s)                  : 6 channels
    Channel layout              : L R C LFE Ls Rs
    Sampling rate               : 48.0 kHz
    Frame rate                  : 31.250 FPS (1536 SPF)
    Compression mode            : Lossy
    Delay relative to video     : 679 ms
    Stream size                 : 277 MiB (3%)
    Title                       : Español Latino [CinemaniaHDD]
    Language                    : Spanish
    Service kind                : Complete Main
    Default                     : Yes
    Forced                      : No

    Audio #2
    ID                          : 3
    Format                      : MLP FBA 16-ch
    Format/Info                 : Meridian Lossless Packing FBA with 16-channel presentation
    Commercial name             : Dolby TrueHD with Dolby Atmos
    Codec ID                    : A_TRUEHD
    Duration                    : 1 h 41 min
    Bit rate mode               : Variable
    Bit rate                    : 3 056 kb/s
    Maximum bit rate            : 4 767 kb/s
    Channel(s)                  : 8 channels
    Channel layout              : L R C LFE Ls Rs Lb Rb
    Sampling rate               : 48.0 kHz
    Frame rate                  : 1 200.000 FPS (40 SPF)
    Compression mode            : Lossless
    Stream size                 : 2.16 GiB (25%)
    Title                       : Ingles THD [CinemaniaHDD]
    Language                    : English
    Default                     : No
    Forced                      : No
    Number of dynamic objects   : 11
    Bed channel count           : 1 channel
    Bed channel configuration   : LFE

    Audio #3
    ID                          : 4
    Format                      : AC-3
    Format/Info                 : Audio Coding 3
    Commercial name             : Dolby Digital
    Codec ID                    : A_AC3
    Duration                    : 1 h 41 min
    Bit rate mode               : Constant
    Bit rate                    : 448 kb/s
    Channel(s)                  : 6 channels
    Channel layout              : L R C LFE Ls Rs
    Sampling rate               : 48.0 kHz
    Frame rate                  : 31.250 FPS (1536 SPF)
    Compression mode            : Lossy
    Stream size                 : 324 MiB (4%)
    Title                       : Ingles AC3 [CinemaniaHDD]
    Language                    : English
    Service kind                : Complete Main
    Default                     : No
    Forced                      : No

    Text #1
    ID                          : 5
    Format                      : UTF-8
    Codec ID                    : S_TEXT/UTF8
    Codec ID/Info               : UTF-8 Plain Text
    Duration                    : 1 h 31 min
    Bit rate                    : 0 b/s
    Count of elements           : 15
    Stream size                 : 594 Bytes (0%)
    Title                       : Forzados-SRT [CinemaniaHDD]
    Language                    : Spanish
    Default                     : Yes
    Forced                      : No

    Text #2
    ID                          : 6
    Format                      : UTF-8
    Codec ID                    : S_TEXT/UTF8
    Codec ID/Info               : UTF-8 Plain Text
    Duration                    : 1 h 40 min
    Bit rate                    : 59 b/s
    Count of elements           : 1439
    Stream size                 : 43.9 KiB (0%)
    Title                       : Español-SRT [CinemaniaHDD]
    Language                    : Spanish
    Default                     : No
    Forced                      : No

    Text #3
    ID                          : 7
    Format                      : PGS
    Muxing mode                 : zlib
    Codec ID                    : S_HDMV/PGS
    Codec ID/Info               : Picture based subtitle format used on BDs/HD-DVDs
    Duration                    : 1 h 40 min
    Bit rate                    : 53.3 kb/s
    Count of elements           : 4114
    Stream size                 : 38.3 MiB (0%)
    Title                       : Ingles-PGS [CinemaniaHDD]
    Language                    : Spanish
    Default                     : No
    Forced                      : No

    Menu
    00:00:00.000                : :Chapter 01
    00:05:51.434                : :Chapter 02
    00:15:26.008                : :Chapter 03
    00:24:49.113                : :Chapter 04
    00:31:41.900                : :Chapter 05
    00:39:37.709                : :Chapter 06
    00:48:48.259                : :Chapter 07
    00:58:37.264                : :Chapter 08
    01:07:21.704                : :Chapter 09
    01:11:59.857                : :Chapter 10
    01:22:26.733                : :Chapter 11
    01:26:17.381                : :Chapter 12
    01:34:07.851                : :Chapter 13

  • Peso: 8.68 GiB

Sinopsis

Descargar Tom y Jerry (2021) PLACEBO Full HD 1080p Latino. Tom el gato y Jerry el ratón son expulsados de su casa y se trasladan a un elegante hotel de Nueva York, donde una empleada descuidada llamada Kayla perderá su trabajo si no puede desalojar a Jerry antes de una boda de clase alta en el hotel. ¿Su solución? Contratar a Tom para deshacerse del molesto ratón.

Español Latino AC3 5.1 WebDL – Ingles TrueHD 7.1 & AC3 5.1 Bluray

Ficha técnica

Video trailer de la película

Enlaces de descarga

Rip de Bluray

Descargar Tom y Jerry (2021) PLACEBO Full HD 1080p Latino




Aportes de DPeliculasHDmega la pass es:dpeliculashdmega.org Aportes de CinemaniaHD la pass es:cinemaniahdd.com

Películas relacionadas

  • The Strange House (2021) NF WEB-DL 1080p Latino

    The Strange House (2021) NF WEB-DL 1080p Latino

    2020
    The Strange House (2021) NF WEB-DL 1080p Latino

    5.0 0h 0m 2020

    Cuando una familia se muda de la gran ciudad a un pueblo apartado, dos jóvenes hermanos y sus nuevos...

    Director: Daniel Prochaska

    Género: Aventura

    Actores: Michael Pink

  • Loco Y Estúpido Amor (2011) 1080p Latino

    Loco Y Estúpido Amor (2011) 1080p Latino

    2011
    Loco Y Estúpido Amor (2011) 1080p Latino

    0.0 1h 58m 2011

    Descargar Loco Y Estúpido Amor (2011) 1080p Latino. La situación del cuarentón y puritano Cal Weaver...

    Director: John Requa

    Género: Comedia

    Actores: Zayne Emory

  • Loco Y Estúpido Amor (2011) Full HD 1080p Latino

    Loco Y Estúpido Amor (2011) Full HD 1080p Latino

    2011
    Loco Y Estúpido Amor (2011) Full HD 1080p Latino

    0.0 1h 58m 2011

    Descargar Loco Y Estúpido Amor (2011) Full HD 1080p Latino. La situación del cuarentón y puritano...

    Director: John Requa

    Género: Comedia

    Actores: Zayne Emory

Tom y Jerry (2021) PLACEBO Full HD 1080p Latino pelicula full hd, Tom y Jerry (2021) PLACEBO Full HD 1080p Latino mega latino, Tom y Jerry (2021) PLACEBO Full HD 1080p Latino 4k latino, Tom y Jerry (2021) PLACEBO Full HD 1080p Latino pelicula completa, Tom y Jerry (2021) PLACEBO Full HD 1080p Latino descargar gratis, descargar Tom y Jerry (2021) PLACEBO Full HD 1080p Latino pelicula latino, Tom y Jerry (2021) PLACEBO Full HD 1080p Latino 1 link mega, Tom y Jerry (2021) PLACEBO Full HD 1080p Latino 1 link google drive, Tom y Jerry (2021) PLACEBO Full HD 1080p Latino hd 1080p latino.
Comentarios 0