Tom & Jerry (2021) HMAX WEB-DL 1080p Latino

139 vistas
1 estrella2 estrellas3 estrellas4 estrellas5 estrellas (2 votos, promedio: 4,00 de 5)
Cargando...

Información de Tom & Jerry (2021) HMAX WEB-DL 1080p Latino

Datos de la película

  • Calidad: WEBDL
  • Audio: Español Latino AC3 5.1 WEB-DL - Ingles AC3 5.1 WEB-DL
  • Subtitulos: Español Latino SRT- FORZADOS SRT
  • Resolución: 1920x1080
  • Formato: MKV
  • Codec: H.264
  • Encoder: cinemaniahdd
  • Mediainfo: Clic para Mostrar Datos Ver
  • Tom & Jerry (2021) HMAX WEB-DL 1080p Latino [CNMNHDD].mkv
    Format                      : Matroska
    Format version              : Version 4
    File size                   : 6.89 GiB
    Duration                    : 1 h 41 min
    Overall bit rate mode       : Variable
    Overall bit rate            : 9 760 kb/s
    Movie name                  : Tom & Jerry (2021) - CinemaniaHDD.Net
    Encoded date                : UTC 2021-02-26 09:03:31
    Writing application         : mkvmerge v51.0.0 ('I Wish') 64-bit
    Writing library             : libebml v1.4.0 + libmatroska v1.6.2

    Video
    ID                          : 1
    Format                      : AVC
    Format/Info                 : Advanced Video Codec
    Format profile              : High@L4
    Format settings             : CABAC / 4 Ref Frames
    Format settings, CABAC      : Yes
    Format settings, Reference  : 4 frames
    Codec ID                    : V_MPEG4/ISO/AVC
    Duration                    : 1 h 41 min
    Bit rate mode               : Variable
    Bit rate                    : 8 221 kb/s
    Maximum bit rate            : 12.4 Mb/s
    Width                       : 1 920 pixels
    Height                      : 1 080 pixels
    Display aspect ratio        : 16:9
    Frame rate mode             : Constant
    Frame rate                  : 23.976 (24000/1001) FPS
    Color space                 : YUV
    Chroma subsampling          : 4:2:0
    Bit depth                   : 8 bits
    Scan type                   : Progressive
    Bits/(Pixel*Frame)          : 0.165
    Stream size                 : 5.80 GiB (84%)
    Title                       : CinemaniaHDD
    Default                     : Yes
    Forced                      : No
    Color range                 : Limited
    Color primaries             : BT.709
    Transfer characteristics    : BT.709
    Matrix coefficients         : BT.709

    Audio #1
    ID                          : 2
    Format                      : AC-3
    Format/Info                 : Audio Coding 3
    Commercial name             : Dolby Digital
    Codec ID                    : A_AC3
    Duration                    : 1 h 41 min
    Bit rate mode               : Constant
    Bit rate                    : 384 kb/s
    Channel(s)                  : 6 channels
    Channel layout              : L R C LFE Ls Rs
    Sampling rate               : 48.0 kHz
    Frame rate                  : 31.250 FPS (1536 SPF)
    Compression mode            : Lossy
    Stream size                 : 277 MiB (4%)
    Title                       : Español latino [CinemaniaHDD]
    Language                    : Spanish
    Service kind                : Complete Main
    Default                     : Yes
    Forced                      : No

    Audio #2
    ID                          : 3
    Format                      : AC-3
    Format/Info                 : Audio Coding 3
    Commercial name             : Dolby Digital
    Codec ID                    : A_AC3
    Duration                    : 1 h 41 min
    Bit rate mode               : Constant
    Bit rate                    : 384 kb/s
    Channel(s)                  : 6 channels
    Channel layout              : L R C LFE Ls Rs
    Sampling rate               : 48.0 kHz
    Frame rate                  : 31.250 FPS (1536 SPF)
    Compression mode            : Lossy
    Stream size                 : 277 MiB (4%)
    Title                       : Inglés [CinemaniaHDD]
    Language                    : English
    Service kind                : Complete Main
    Default                     : No
    Forced                      : No

    Audio #3
    ID                          : 4
    Format                      : E-AC-3 JOC
    Format/Info                 : Enhanced AC-3 with Joint Object Coding
    Commercial name             : Dolby Digital Plus with Dolby Atmos
    Codec ID                    : A_EAC3
    Duration                    : 1 h 41 min
    Bit rate mode               : Constant
    Bit rate                    : 768 kb/s
    Channel(s)                  : 6 channels
    Channel layout              : L R C LFE Ls Rs
    Sampling rate               : 48.0 kHz
    Frame rate                  : 31.250 FPS (1536 SPF)
    Compression mode            : Lossy
    Stream size                 : 555 MiB (8%)
    Title                       : Inglés E-AC3 [CinemaniaHDD]
    Language                    : English
    Service kind                : Complete Main
    Default                     : No
    Forced                      : No
    Complexity index            : 16
    Number of dynamic objects   : 15
    Bed channel count           : 1 channel
    Bed channel configuration   : LFE

    Text #1
    ID                          : 5
    Format                      : UTF-8
    Codec ID                    : S_TEXT/UTF8
    Codec ID/Info               : UTF-8 Plain Text
    Duration                    : 1 h 33 min
    Bit rate                    : 2 b/s
    Count of elements           : 96
    Stream size                 : 1.53 KiB (0%)
    Title                       : Forzados [CinemaniaHDD]
    Language                    : Spanish
    Default                     : Yes
    Forced                      : Yes

    Text #2
    ID                          : 6
    Format                      : UTF-8
    Codec ID                    : S_TEXT/UTF8
    Codec ID/Info               : UTF-8 Plain Text
    Duration                    : 1 h 40 min
    Bit rate                    : 63 b/s
    Count of elements           : 1534
    Stream size                 : 46.6 KiB (0%)
    Title                       : Español latino [CC] [CinemaniaHDD]
    Language                    : Spanish
    Default                     : No
    Forced                      : No

    Text #3
    ID                          : 7
    Format                      : UTF-8
    Codec ID                    : S_TEXT/UTF8
    Codec ID/Info               : UTF-8 Plain Text
    Duration                    : 1 h 40 min
    Bit rate                    : 94 b/s
    Count of elements           : 2260
    Stream size                 : 69.6 KiB (0%)
    Title                       : Inglés [CC] [CinemaniaHDD]
    Language                    : English
    Default                     : No
    Forced                      : No

     

  • Peso: 6.89 GiB

Sinopsis

Tom el gato y Jerry el ratón son expulsados de su casa y se trasladan a un elegante hotel de Nueva York, donde una empleada descuidada llamada Kayla perderá su trabajo si no puede desalojar a Jerry antes de una boda de clase alta en el hotel. ¿Su solución? Contratar a Tom para deshacerse del molesto ratón.

Ficha técnica

  • Titulo original: Tom & Jerry
  • Fecha de lanzamiento: 12-02-2021 (United States of America)
  • Director: Tim Story
  • Género: Aventura, Comedia, Familia, HBOMAX
  • Puntuación: 4.0 2 votos
  • Duración:
    1h 41m

Video trailer de la película

Enlaces de descarga

Rip de Bluray

Descargar Tom & Jerry (2021) HMAX WEB-DL 1080p Latino




Aportes de DPeliculasHDmega la pass es:dpeliculashdmega.org Aportes de CinemaniaHD la pass es:cinemaniahdd.com
Guardado en : Aventura , Comedia , Familia , HBOMAX

Películas relacionadas

  • Spirit: El Indomable (2021) Web-DL 4K UHD HDR Latino

    Spirit: El Indomable (2021) Web-DL 4K UHD HDR Latino

    2021
    Spirit: El Indomable (2021) Web-DL 4K UHD HDR Latino

    0.0 1h 28m 2021

    Descargar Spirit: El Indomable (2021) Web-DL 4K UHD HDR Latino. La vida de Lucky Prescott cambia para...

    Director: Ennio Torresan Jr.

    Género: 4K HDR

    Actores: Walton Goggins

  • Spirit: El Indomable (2021) AMZN WebDL 1080p Latino

    Spirit: El Indomable (2021) AMZN WebDL 1080p Latino

    2021
    Spirit: El Indomable (2021) AMZN WebDL 1080p Latino

    0.0 1h 28m 2021

    Descargar Spirit: El Indomable (2021) AMZN WebDL 1080p Latino. La vida de Lucky Prescott cambia para...

    Director: Ennio Torresan Jr.

    Género: Animación

    Actores: Walton Goggins

  • Spirit: El Indomable (2021) WebDL 1080p Latino

    Spirit: El Indomable (2021) WebDL 1080p Latino

    2021
    Spirit: El Indomable (2021) WebDL 1080p Latino

    0.0 1h 28m 2021

    Descargar Spirit: El Indomable (2021) WebDL 1080p Latino. La vida de Lucky Prescott cambia para siempre...

    Director: Ennio Torresan Jr.

    Género: Animación

    Actores: Walton Goggins

  • La chica de rosa (1986) 1080p Latino

    La chica de rosa (1986) 1080p Latino

    1986
    La chica de rosa (1986) 1080p Latino

    0.0 1h 36m 1986

    Descargar La chica de rosa (1986) 1080p Latino. Andie Walsh (Molly Ringwald), una buena estudiante de...

    Director: Pamela Alch

    Género: Comedia

    Actores: Molly Ringwald

Tom & Jerry (2021) HMAX WEB-DL 1080p Latino pelicula full hd, Tom & Jerry (2021) HMAX WEB-DL 1080p Latino mega latino, Tom & Jerry (2021) HMAX WEB-DL 1080p Latino 4k latino, Tom & Jerry (2021) HMAX WEB-DL 1080p Latino pelicula completa, Tom & Jerry (2021) HMAX WEB-DL 1080p Latino descargar gratis, descargar Tom & Jerry (2021) HMAX WEB-DL 1080p Latino pelicula latino, Tom & Jerry (2021) HMAX WEB-DL 1080p Latino 1 link mega, Tom & Jerry (2021) HMAX WEB-DL 1080p Latino 1 link google drive, Tom & Jerry (2021) HMAX WEB-DL 1080p Latino hd 1080p latino.
Comentarios 0