Tom Clancy’s Without Remorse (2021) AMZN WEB-DL 1080p Latino

135 vistas
1 estrella2 estrellas3 estrellas4 estrellas5 estrellas (3 votos, promedio: 5,00 de 5)
Cargando...

Información de Tom Clancy’s Without Remorse (2021) AMZN WEB-DL 1080p Latino

Datos de la película

  • Calidad: WEBDL
  • Audio: Español Latino E-AC3 5.1 AMAZON - Ingles E-AC3 5.1 AMAZON
  • Subtitulos: Español Latino SRT- FORZADOS SRT
  • Resolución: 1920x1080
  • Formato: MKV
  • Codec: H.264
  • Encoder: cinemaniahdd
  • Mediainfo: Clic para Mostrar Datos Ver
  • Tom Clancy's Without Remorse (2021) AMZN WEB-DL 1080p Latino [CNMNHDD].mkv
    Format                      : Matroska
    Format version              : Version 4
    File size                   : 6.46 GiB
    Duration                    : 1 h 49 min
    Overall bit rate            : 8 462 kb/s
    Movie name                  : Tom Clancy's Without Remorse (2021) - CinemaniaHDD.Net
    Encoded date                : UTC 2021-04-30 00:41:06
    Writing application         : mkvmerge v56.1.0 ('My Friend') 64-bit
    Writing library             : libebml v1.4.2 + libmatroska v1.6.4

    Video
    ID                          : 1
    Format                      : AVC
    Format/Info                 : Advanced Video Codec
    Format profile              : High@L4
    Format settings             : CABAC / 4 Ref Frames
    Format settings, CABAC      : Yes
    Format settings, Reference  : 4 frames
    Codec ID                    : V_MPEG4/ISO/AVC
    Duration                    : 1 h 49 min
    Bit rate mode               : Constant
    Bit rate                    : 6 540 kb/s
    Nominal bit rate            : 10 000 kb/s
    Width                       : 1 920 pixels
    Height                      : 800 pixels
    Display aspect ratio        : 2.40:1
    Frame rate mode             : Constant
    Frame rate                  : 23.976 (24000/1001) FPS
    Color space                 : YUV
    Chroma subsampling          : 4:2:0
    Bit depth                   : 8 bits
    Scan type                   : Progressive
    Bits/(Pixel*Frame)          : 0.178
    Stream size                 : 4.99 GiB (77%)
    Title                       : CinemaniaHDD
    Default                     : Yes
    Forced                      : No
    Color range                 : Limited
    Color primaries             : BT.709
    Transfer characteristics    : BT.709
    Matrix coefficients         : BT.709

    Audio #1
    ID                          : 2
    Format                      : AC-3
    Format/Info                 : Audio Coding 3
    Commercial name             : Dolby Digital
    Codec ID                    : A_AC3
    Duration                    : 1 h 49 min
    Bit rate mode               : Constant
    Bit rate                    : 640 kb/s
    Channel(s)                  : 6 channels
    Channel layout              : L R C LFE Ls Rs
    Sampling rate               : 48.0 kHz
    Frame rate                  : 31.250 FPS (1536 SPF)
    Compression mode            : Lossy
    Stream size                 : 500 MiB (8%)
    Title                       : Español latino - AC3 [CinemaniaHDD]
    Language                    : Spanish
    Service kind                : Complete Main
    Default                     : Yes
    Forced                      : No

    Audio #2
    ID                          : 3
    Format                      : E-AC-3
    Format/Info                 : Enhanced AC-3
    Commercial name             : Dolby Digital Plus
    Codec ID                    : A_EAC3
    Duration                    : 1 h 49 min
    Bit rate mode               : Constant
    Bit rate                    : 640 kb/s
    Channel(s)                  : 6 channels
    Channel layout              : L R C LFE Ls Rs
    Sampling rate               : 48.0 kHz
    Frame rate                  : 31.250 FPS (1536 SPF)
    Compression mode            : Lossy
    Stream size                 : 500 MiB (8%)
    Title                       : Español latino - E-AC3 [CinemaniaHDD]
    Language                    : Spanish
    Service kind                : Complete Main
    Default                     : No
    Forced                      : No

    Audio #3
    ID                          : 4
    Format                      : E-AC-3
    Format/Info                 : Enhanced AC-3
    Commercial name             : Dolby Digital Plus
    Codec ID                    : A_EAC3
    Duration                    : 1 h 49 min
    Bit rate mode               : Constant
    Bit rate                    : 640 kb/s
    Channel(s)                  : 6 channels
    Channel layout              : L R C LFE Ls Rs
    Sampling rate               : 48.0 kHz
    Frame rate                  : 31.250 FPS (1536 SPF)
    Compression mode            : Lossy
    Stream size                 : 500 MiB (8%)
    Title                       : Inglés - E-AC3 [CinemaniaHDD]
    Language                    : English
    Service kind                : Complete Main
    Default                     : No
    Forced                      : No

    Text #1
    ID                          : 5
    Format                      : UTF-8
    Codec ID                    : S_TEXT/UTF8
    Codec ID/Info               : UTF-8 Plain Text
    Duration                    : 1 h 40 min
    Bit rate                    : 1 b/s
    Count of elements           : 23
    Stream size                 : 825 Bytes (0%)
    Title                       : Forzados [CinemaniaHDD]
    Language                    : Spanish
    Default                     : Yes
    Forced                      : Yes

    Text #2
    ID                          : 6
    Format                      : UTF-8
    Codec ID                    : S_TEXT/UTF8
    Codec ID/Info               : UTF-8 Plain Text
    Duration                    : 1 h 47 min
    Bit rate                    : 32 b/s
    Count of elements           : 904
    Stream size                 : 25.4 KiB (0%)
    Title                       : Español latino [CinemaniaHDD]
    Language                    : Spanish
    Default                     : No
    Forced                      : No

    Text #3
    ID                          : 7
    Format                      : UTF-8
    Codec ID                    : S_TEXT/UTF8
    Codec ID/Info               : UTF-8 Plain Text
    Duration                    : 1 h 48 min
    Bit rate                    : 47 b/s
    Count of elements           : 1436
    Stream size                 : 38.1 KiB (0%)
    Title                       : Inglés [CC] [CinemaniaHDD]
    Language                    : English
    Default                     : No
    Forced                      : No

    Menu
    00:00:00.000                : Amazon Original
    00:00:06.000                : Studio Logo
    00:00:30.000                : Scene 3
    00:03:15.000                : Scene 4
    00:08:22.000                : Scene 5
    00:10:08.000                : Scene 6
    00:10:41.000                : Scene 7
    00:11:16.000                : Scene 8
    00:11:48.000                : Scene 9
    00:17:59.000                : Scene 10
    00:20:05.000                : Scene 11
    00:23:07.000                : Scene 12
    00:24:12.000                : Scene 13
    00:24:49.000                : Scene 14
    00:26:56.000                : Scene 15
    00:29:27.000                : Scene 16
    00:36:04.000                : Scene 17
    00:37:40.000                : Scene 18
    00:39:39.000                : Scene 19
    00:44:21.000                : Scene 20
    00:48:30.000                : Scene 21
    00:54:11.000                : Scene 22
    01:04:53.000                : Scene 23
    01:08:50.000                : Scene 24
    01:16:00.000                : Scene 25
    01:20:42.000                : Scene 26
    01:27:59.000                : Scene 27
    01:35:10.000                : Scene 28
    01:39:59.000                : End Credits
    01:41:36.000                : BONUS
    01:43:32.000                : End Credits

     

  • Peso: 6.46 GiB

Sinopsis

Un ex Navy SEAL convertido en agente de la CIA busca venganza después de que su novia es asesinada por un narcotraficante de Baltimore.

Ficha técnica

Video trailer de la película

Enlaces de descarga

Rip de Bluray

Descargar Tom Clancy’s Without Remorse (2021) AMZN WEB-DL 1080p Latino




Aportes de DPeliculasHDmega la pass es:dpeliculashdmega.org Aportes de CinemaniaHD la pass es:cinemaniahdd.com
Guardado en : Acción , Aventura , Bélica , Suspenso

Películas relacionadas

  • The Hatred (2017) WEB-DL 1080p Latino

    The Hatred (2017) WEB-DL 1080p Latino

    2017
    The Hatred (2017) WEB-DL 1080p Latino

    5.0 1h 34m 2017

    Cuatro mujeres jóvenes viajan a la nueva casa de campo de su profesor universitario para una escapada...

    Director: Michael G. Kehoe

    Género: Suspenso

    Actores: Tim DeZarn

  • S.W.A.T (2019) WEB-DL 1080p Latino

    S.W.A.T (2019) WEB-DL 1080p Latino

    2019
    S.W.A.T (2019) WEB-DL 1080p Latino

    5.0 0h 0m 2019

    Una Unidad de Fuerzas Especiales ha organizado una serie de ejercicios de combate para seleccionar a...

    Director: Ding Sheng

    Género: Acción

    Actores: Zhao Xiaorui

  • Servants of War (2019) WEB-DL 1080p Latino

    Servants of War (2019) WEB-DL 1080p Latino

    2019
    Servants of War (2019) WEB-DL 1080p Latino

    5.0 1h 38m 2019

    El conocido profesor Professor Jerzy Abramski es asesinado. De su investigación se encarga el inspector...

    Director: Mariusz Gawryś

    Género: Crimen

    Actores: Zbigniew Stryj

Tom Clancy’s Without Remorse (2021) AMZN WEB-DL 1080p Latino pelicula full hd, Tom Clancy’s Without Remorse (2021) AMZN WEB-DL 1080p Latino mega latino, Tom Clancy’s Without Remorse (2021) AMZN WEB-DL 1080p Latino 4k latino, Tom Clancy’s Without Remorse (2021) AMZN WEB-DL 1080p Latino pelicula completa, Tom Clancy’s Without Remorse (2021) AMZN WEB-DL 1080p Latino descargar gratis, descargar Tom Clancy’s Without Remorse (2021) AMZN WEB-DL 1080p Latino pelicula latino, Tom Clancy’s Without Remorse (2021) AMZN WEB-DL 1080p Latino 1 link mega, Tom Clancy’s Without Remorse (2021) AMZN WEB-DL 1080p Latino 1 link google drive, Tom Clancy’s Without Remorse (2021) AMZN WEB-DL 1080p Latino hd 1080p latino.
Comentarios 2
  • David - 30 abril, 2021

    amigo muchas gracias. el audio ingles es descriptivo. se podrá resubir?

    • CinemaniaHDD - 02 mayo, 2021

      Resubiendo…