×

¿Problemas para descargar con Mozilla, EDGE? Deshabilita la opción "Abrir vinculos en una pestaña nueva" tal como lo muestra ésta imagen.

Tom Clancy’s Jack Ryan (2023) Cuarta Temporada AMZN WEB-DL 1080p Latino

272 vistas

Información de Tom Clancy’s Jack Ryan (2023) Cuarta Temporada AMZN WEB-DL 1080p Latino

Datos de la película

  • Calidad: 1080p
  • Audio: Español Latino AC3 5.1 WEB-DL - Ingles AC3 5.1 WEB-DL
  • Subtitulos: Español Latino SRT- FORZADOS SRT
  • Resolución: 1920x1080
  • Formato: MKV
  • Codec: H.264
  • Encoder: cinemaniahdd
  • Mediainfo: Clic para Mostrar Datos Ver
  • Tom Clancys Jack Ryan T04E01 AMZN WEB-DL 1080p Latino [CNMNHDD].mkv
    Format                      : Matroska
    Format version              : Version 4
    File size                   : 3.01 GiB
    Duration                    : 59 min 36 s
    Overall bit rate            : 7 221 kb/s
    Movie name                  : Tom Clancys Jack Ryan S04E01 - Triage [1080p] - CinemaniaHDD.Net
    Encoded date                : UTC 2023-06-30 00:07:34
    Writing application         : mkvmerge v56.1.0 ('My Friend') 64-bit
    Writing library             : libebml v1.4.2 + libmatroska v1.6.4

    Video
    ID                          : 1
    Format                      : AVC
    Format/Info                 : Advanced Video Codec
    Format profile              : High@L4
    Format settings             : CABAC / 4 Ref Frames
    Format settings, CABAC      : Yes
    Format settings, Reference  : 4 frames
    Codec ID                    : V_MPEG4/ISO/AVC
    Duration                    : 59 min 36 s
    Bit rate mode               : Constant
    Bit rate                    : 5 299 kb/s
    Nominal bit rate            : 10 000 kb/s
    Width                       : 1 920 pixels
    Height                      : 872 pixels
    Display aspect ratio        : 2.2:1
    Frame rate mode             : Constant
    Frame rate                  : 23.976 (24000/1001) FPS
    Color space                 : YUV
    Chroma subsampling          : 4:2:0
    Bit depth                   : 8 bits
    Scan type                   : Progressive
    Bits/(Pixel*Frame)          : 0.132
    Stream size                 : 2.21 GiB (73%)
    Title                       : CinemaniaHDD
    Default                     : Yes
    Forced                      : No
    Color range                 : Limited
    Color primaries             : BT.709
    Transfer characteristics    : BT.709
    Matrix coefficients         : BT.709

    Audio #1
    ID                          : 2
    Format                      : AC-3
    Format/Info                 : Audio Coding 3
    Commercial name             : Dolby Digital
    Codec ID                    : A_AC3
    Duration                    : 59 min 36 s
    Bit rate mode               : Constant
    Bit rate                    : 640 kb/s
    Channel(s)                  : 6 channels
    Channel layout              : L R C LFE Ls Rs
    Sampling rate               : 48.0 kHz
    Frame rate                  : 31.250 FPS (1536 SPF)
    Compression mode            : Lossy
    Stream size                 : 273 MiB (9%)
    Title                       : Español Latino [CinemaniaHDD]
    Language                    : Spanish
    Service kind                : Complete Main
    Default                     : Yes
    Forced                      : No

    Audio #2
    ID                          : 3
    Format                      : E-AC-3
    Format/Info                 : Enhanced AC-3
    Commercial name             : Dolby Digital Plus
    Codec ID                    : A_EAC3
    Duration                    : 59 min 36 s
    Bit rate mode               : Constant
    Bit rate                    : 640 kb/s
    Channel(s)                  : 6 channels
    Channel layout              : L R C LFE Ls Rs
    Sampling rate               : 48.0 kHz
    Frame rate                  : 31.250 FPS (1536 SPF)
    Compression mode            : Lossy
    Stream size                 : 273 MiB (9%)
    Title                       : Español latino / E-AC3 [CinemaniaHDD]
    Language                    : Spanish
    Service kind                : Complete Main
    Default                     : No
    Forced                      : No

    Audio #3
    ID                          : 4
    Format                      : E-AC-3
    Format/Info                 : Enhanced AC-3
    Commercial name             : Dolby Digital Plus
    Codec ID                    : A_EAC3
    Duration                    : 59 min 36 s
    Bit rate mode               : Constant
    Bit rate                    : 640 kb/s
    Channel(s)                  : 6 channels
    Channel layout              : L R C LFE Ls Rs
    Sampling rate               : 48.0 kHz
    Frame rate                  : 31.250 FPS (1536 SPF)
    Compression mode            : Lossy
    Stream size                 : 273 MiB (9%)
    Title                       : Inglés [CinemaniaHDD]
    Language                    : English
    Service kind                : Complete Main
    Default                     : No
    Forced                      : No

    Text #1
    ID                          : 5
    Format                      : UTF-8
    Codec ID                    : S_TEXT/UTF8
    Codec ID/Info               : UTF-8 Plain Text
    Duration                    : 48 min 17 s
    Bit rate                    : 2 b/s
    Count of elements           : 28
    Stream size                 : 851 Bytes (0%)
    Title                       : Forzados [CinemaniaHDD]
    Language                    : Spanish
    Default                     : Yes
    Forced                      : Yes

    Text #2
    ID                          : 6
    Format                      : UTF-8
    Codec ID                    : S_TEXT/UTF8
    Codec ID/Info               : UTF-8 Plain Text
    Duration                    : 55 min 18 s
    Bit rate                    : 45 b/s
    Count of elements           : 584
    Stream size                 : 18.4 KiB (0%)
    Title                       : Español Latino [CinemaniaHDD]
    Language                    : Spanish
    Default                     : No
    Forced                      : No

    Text #3
    ID                          : 7
    Format                      : UTF-8
    Codec ID                    : S_TEXT/UTF8
    Codec ID/Info               : UTF-8 Plain Text
    Duration                    : 55 min 7 s
    Bit rate                    : 54 b/s
    Count of elements           : 804
    Stream size                 : 22.0 KiB (0%)
    Title                       : Inglés [CinemaniaHDD]
    Language                    : English
    Default                     : No
    Forced                      : No

     

  • Peso: 3.01 GiB C/U --- 6 CAPITULOS AGREGADOS

Sinopsis

La cuarta y última temporada encuentra a Jack en su misión más peligrosa hasta el momento. Como nuevo subdirecror interino de la CIA, tiene la tarea de eliminar la corrupción interna. Al investigar, descubre la convergancia de un cártel de drogas con una organización terrorista, que revela una conspiración y pone a prueba la confianza de Jack en el sistema que siempre ha protegido.

Ficha técnica

Video trailer de la película

Enlaces de descarga

Rip de Bluray

Descargar Tom Clancy’s Jack Ryan (2023) Cuarta Temporada AMZN WEB-DL 1080p Latino




Aportes de DPeliculasHDmega la pass es:dpeliculashdmega.org Aportes de CinemaniaHD la pass es:cinemaniahdd.com Aportes recientes:cinemaniahdd.net

Películas relacionadas

descargar Tom Clancy’s Jack Ryan (2023) Cuarta Temporada AMZN WEB-DL 1080p Latino 1080p 1080p gratis, Tom Clancy’s Jack Ryan (2023) Cuarta Temporada AMZN WEB-DL 1080p Latino 1080p mega 1 link, Tom Clancy’s Jack Ryan (2023) Cuarta Temporada AMZN WEB-DL 1080p Latino 1080p serie completa, descargar Tom Clancy’s Jack Ryan (2023) Cuarta Temporada AMZN WEB-DL 1080p Latino 1080p gratis en mega.

Tom Clancy’s Jack Ryan (2023) Cuarta Temporada AMZN WEB-DL 1080p Latino pelicula full hd, Tom Clancy’s Jack Ryan (2023) Cuarta Temporada AMZN WEB-DL 1080p Latino mega latino, Tom Clancy’s Jack Ryan (2023) Cuarta Temporada AMZN WEB-DL 1080p Latino 4k latino, Tom Clancy’s Jack Ryan (2023) Cuarta Temporada AMZN WEB-DL 1080p Latino pelicula completa, Tom Clancy’s Jack Ryan (2023) Cuarta Temporada AMZN WEB-DL 1080p Latino descargar gratis, descargar Tom Clancy’s Jack Ryan (2023) Cuarta Temporada AMZN WEB-DL 1080p Latino pelicula latino, Tom Clancy’s Jack Ryan (2023) Cuarta Temporada AMZN WEB-DL 1080p Latino 1 link mega, Tom Clancy’s Jack Ryan (2023) Cuarta Temporada AMZN WEB-DL 1080p Latino 1 link google drive, Tom Clancy’s Jack Ryan (2023) Cuarta Temporada AMZN WEB-DL 1080p Latino hd 1080p latino.
Comentarios 0