×

¿Problemas para descargar con Mozilla, EDGE? Deshabilita la opción "Abrir vinculos en una pestaña nueva" tal como lo muestra ésta imagen.

Tokyo Vice (2024) Segunda Temporada MAX WEB-DL 1080p Latino

110 vistas

Información de Tokyo Vice (2024) Segunda Temporada MAX WEB-DL 1080p Latino

Datos de la película

  • Calidad: 1080p
  • Audio: Español Latino AC3 5.1 WEB-DL - Ingles AC3 5.1 WEB-DL
  • Subtitulos: Español Latino SRT- FORZADOS SRT
  • Resolución: 1920x1080
  • Formato: MKV
  • Codec: H.264
  • Encoder: cinemaniahdd
  • Mediainfo: Clic para Mostrar Datos Ver
  • Tokyo Vice T02E01 MAX WEB-DL 1080p Latino [CNMNHDD].mkv
    Format                      : Matroska
    Format version              : Version 4
    File size                   : 3.88 GiB
    Duration                    : 57 min 32 s
    Overall bit rate            : 9 654 kb/s
    Movie name                  : Tokyo Vice S02E01 - No te atrevas a fallar [1080p] - CinemaniaHDD.Net
    Encoded date                : UTC 2024-02-08 23:45:55
    Writing application         : mkvmerge v56.1.0 ('My Friend') 64-bit
    Writing library             : libebml v1.4.2 + libmatroska v1.6.4

    Video
    ID                          : 1
    Format                      : AVC
    Format/Info                 : Advanced Video Codec
    Format profile              : High@L4
    Format settings             : CABAC / 4 Ref Frames
    Format settings, CABAC      : Yes
    Format settings, Reference  : 4 frames
    Codec ID                    : V_MPEG4/ISO/AVC
    Duration                    : 57 min 32 s
    Bit rate mode               : Constant
    Bit rate                    : 7 731 kb/s
    Nominal bit rate            : 10 000 kb/s
    Width                       : 1 920 pixels
    Height                      : 960 pixels
    Display aspect ratio        : 2.000
    Frame rate mode             : Constant
    Frame rate                  : 23.976 (24000/1001) FPS
    Color space                 : YUV
    Chroma subsampling          : 4:2:0
    Bit depth                   : 8 bits
    Scan type                   : Progressive
    Bits/(Pixel*Frame)          : 0.175
    Stream size                 : 3.11 GiB (80%)
    Title                       : CinemaniaHDD
    Default                     : Yes
    Forced                      : No
    Color range                 : Limited
    Color primaries             : BT.709
    Transfer characteristics    : BT.709
    Matrix coefficients         : BT.709

    Audio #1
    ID                          : 2
    Format                      : AC-3
    Format/Info                 : Audio Coding 3
    Commercial name             : Dolby Digital
    Codec ID                    : A_AC3
    Duration                    : 57 min 32 s
    Bit rate mode               : Constant
    Bit rate                    : 640 kb/s
    Channel(s)                  : 6 channels
    Channel layout              : L R C LFE Ls Rs
    Sampling rate               : 48.0 kHz
    Frame rate                  : 31.250 FPS (1536 SPF)
    Compression mode            : Lossy
    Stream size                 : 263 MiB (7%)
    Title                       : Español Latino [CinemaniaHDD]
    Language                    : Spanish
    Service kind                : Complete Main
    Default                     : Yes
    Forced                      : No

    Audio #2
    ID                          : 3
    Format                      : E-AC-3
    Format/Info                 : Enhanced AC-3
    Commercial name             : Dolby Digital Plus
    Codec ID                    : A_EAC3
    Duration                    : 57 min 32 s
    Bit rate mode               : Constant
    Bit rate                    : 640 kb/s
    Channel(s)                  : 6 channels
    Channel layout              : L R C LFE Ls Rs
    Sampling rate               : 48.0 kHz
    Frame rate                  : 31.250 FPS (1536 SPF)
    Compression mode            : Lossy
    Stream size                 : 263 MiB (7%)
    Title                       : Español Latino / E-AC3 [CinemaniaHDD]
    Language                    : Spanish
    Service kind                : Complete Main
    Default                     : No
    Forced                      : No

    Audio #3
    ID                          : 4
    Format                      : E-AC-3
    Format/Info                 : Enhanced AC-3
    Commercial name             : Dolby Digital Plus
    Codec ID                    : A_EAC3
    Duration                    : 57 min 32 s
    Bit rate mode               : Constant
    Bit rate                    : 640 kb/s
    Channel(s)                  : 6 channels
    Channel layout              : L R C LFE Ls Rs
    Sampling rate               : 48.0 kHz
    Frame rate                  : 31.250 FPS (1536 SPF)
    Compression mode            : Lossy
    Stream size                 : 263 MiB (7%)
    Title                       : Inglés [CinemaniaHDD]
    Language                    : English
    Service kind                : Complete Main
    Default                     : No
    Forced                      : No

    Text #1
    ID                          : 5
    Format                      : UTF-8
    Codec ID                    : S_TEXT/UTF8
    Codec ID/Info               : UTF-8 Plain Text
    Duration                    : 52 min 42 s
    Bit rate                    : 21 b/s
    Count of elements           : 301
    Stream size                 : 8.40 KiB (0%)
    Title                       : Forzados [CinemaniaHDD]
    Language                    : Spanish
    Default                     : Yes
    Forced                      : Yes

    Text #2
    ID                          : 6
    Format                      : UTF-8
    Codec ID                    : S_TEXT/UTF8
    Codec ID/Info               : UTF-8 Plain Text
    Duration                    : 54 min 42 s
    Bit rate                    : 42 b/s
    Count of elements           : 527
    Stream size                 : 17.0 KiB (0%)
    Title                       : Español Latino [CinemaniaHDD]
    Language                    : Spanish
    Default                     : No
    Forced                      : No

    Text #3
    ID                          : 7
    Format                      : UTF-8
    Codec ID                    : S_TEXT/UTF8
    Codec ID/Info               : UTF-8 Plain Text
    Duration                    : 50 min 8 s
    Bit rate                    : 23 b/s
    Count of elements           : 308
    Stream size                 : 8.60 KiB (0%)
    Title                       : Inglés [CinemaniaHDD]
    Language                    : English
    Default                     : No
    Forced                      : No

     

  • Peso: 3.88 GiB Aprox ---- 41 GiB in 10 Chapters.

Sinopsis

Un joven periodista estadounidense (Ansel Elgort) se adentra en las partes más vulnerables de Tokio repletas de señalizaciones de neón de principios de los 2000, donde nada ni nadie es lo que aparenta.

Ficha técnica

Video trailer de la película

Enlaces de descarga

Rip de Bluray

Descargar Tokyo Vice (2024) Segunda Temporada MAX WEB-DL 1080p Latino




Aportes de DPeliculasHDmega la pass es:dpeliculashdmega.org Aportes de CinemaniaHD la pass es:cinemaniahdd.com Aportes recientes:cinemaniahdd.net
Guardado en : Crimen , Drama , HBOMAX , Series

Películas relacionadas

descargar Tokyo Vice (2024) Segunda Temporada MAX WEB-DL 1080p Latino 1080p 1080p gratis, Tokyo Vice (2024) Segunda Temporada MAX WEB-DL 1080p Latino 1080p mega 1 link, Tokyo Vice (2024) Segunda Temporada MAX WEB-DL 1080p Latino 1080p serie completa, descargar Tokyo Vice (2024) Segunda Temporada MAX WEB-DL 1080p Latino 1080p gratis en mega.

Tokyo Vice (2024) Segunda Temporada MAX WEB-DL 1080p Latino pelicula full hd, Tokyo Vice (2024) Segunda Temporada MAX WEB-DL 1080p Latino mega latino, Tokyo Vice (2024) Segunda Temporada MAX WEB-DL 1080p Latino 4k latino, Tokyo Vice (2024) Segunda Temporada MAX WEB-DL 1080p Latino pelicula completa, Tokyo Vice (2024) Segunda Temporada MAX WEB-DL 1080p Latino descargar gratis, descargar Tokyo Vice (2024) Segunda Temporada MAX WEB-DL 1080p Latino pelicula latino, Tokyo Vice (2024) Segunda Temporada MAX WEB-DL 1080p Latino 1 link mega, Tokyo Vice (2024) Segunda Temporada MAX WEB-DL 1080p Latino 1 link google drive, Tokyo Vice (2024) Segunda Temporada MAX WEB-DL 1080p Latino hd 1080p latino.
Comentarios 0