×

¿Problemas para descargar con Mozilla, EDGE? Deshabilita la opción "Abrir vinculos en una pestaña nueva" tal como lo muestra ésta imagen.

Todo Es Cierto (2018) REMUX 1080p Latino

602 vistas

Información de Todo Es Cierto (2018) REMUX 1080p Latino

Datos de la película

  • Calidad: Full 1080p
  • Audio: Se especifica abajo de la Sinopsis
  • Subtitulos: Español Latino SRT- FORZADOS SRT
  • Resolución: 1920x1080p
  • Formato: MKV
  • Codec: H.264
  • Encoder: Melkor
  • Mediainfo: Clic para Mostrar Datos Ver
  • Todo Es Cierto (2018) REMUX 1080p Latino.mkv
    Format                      : Matroska
    Format version              : Version 4
    File size                   : 16.3 GiB
    Duration                    : 1 h 40 min
    Overall bit rate mode       : Variable
    Overall bit rate            : 23.1 Mb/s
    Movie name                  : All Is True (2018) CinemaniaHDD.Net
    Encoded date                : UTC 2022-06-06 00:00:10
    Writing application         : mkvmerge v56.1.0 ('My Friend') 64-bit
    Writing library             : libebml v1.4.2 + libmatroska v1.6.4
    Attachments                 : CINEMANIAHD.png

    Video
    ID                          : 1
    Format                      : AVC
    Format/Info                 : Advanced Video Codec
    Format profile              : High@L4.1
    Format settings             : CABAC / 3 Ref Frames
    Format settings, CABAC      : Yes
    Format settings, Reference  : 3 frames
    Codec ID                    : V_MPEG4/ISO/AVC
    Duration                    : 1 h 40 min
    Bit rate mode               : Variable
    Bit rate                    : 21.0 Mb/s
    Maximum bit rate            : 40.0 Mb/s
    Width                       : 1 920 pixels
    Height                      : 1 080 pixels
    Display aspect ratio        : 16:9
    Frame rate mode             : Constant
    Frame rate                  : 23.976 (24000/1001) FPS
    Color space                 : YUV
    Chroma subsampling          : 4:2:0
    Bit depth                   : 8 bits
    Scan type                   : Progressive
    Bits/(Pixel*Frame)          : 0.422
    Stream size                 : 14.2 GiB (87%)
    Title                       : REMUX HD1080p [CinemaniaHDD]
    Writing library             : x264 core 148 r2694bm 3b70645
    Encoding settings           : cabac=1 / ref=4 / deblock=1:0:0 / analyse=0x3:0x133 / me=umh / subme=9 / psy=1 / psy_rd=1.00:0.00 / mixed_ref=1 / me_range=16 / chroma_me=1 / trellis=2 / 8x8dct=1 / cqm=0 / deadzone=21,11 / fast_pskip=1 / chroma_qp_offset=-2 / threads=12 / lookahead_threads=1 / sliced_threads=0 / slices=4 / nr=0 / decimate=1 / interlaced=0 / bluray_compat=1 / constrained_intra=0 / bframes=3 / b_pyramid=1 / b_adapt=2 / b_bias=0 / direct=3 / weightb=1 / open_gop=1 / weightp=1 / keyint=24 / keyint_min=1 / scenecut=40 / intra_refresh=0 / rc_lookahead=24 / rc=abr / mbtree=1 / bitrate=21000 / ratetol=1.0 / qcomp=0.60 / qpmin=0 / qpmax=69 / qpstep=4 / vbv_maxrate=40000 / vbv_bufsize=30000 / nal_hrd=vbr / filler=0 / ip_ratio=1.40 / aq=1:1.00
    Language                    : English
    Default                     : Yes
    Forced                      : Yes
    Color range                 : Limited
    Color primaries             : BT.709
    Transfer characteristics    : BT.709
    Matrix coefficients         : BT.709

    Audio #1
    ID                          : 2
    Format                      : AC-3
    Format/Info                 : Audio Coding 3
    Commercial name             : Dolby Digital
    Codec ID                    : A_AC3
    Duration                    : 1 h 40 min
    Bit rate mode               : Constant
    Bit rate                    : 640 kb/s
    Channel(s)                  : 6 channels
    Channel layout              : L R C LFE Ls Rs
    Sampling rate               : 48.0 kHz
    Frame rate                  : 31.250 FPS (1536 SPF)
    Compression mode            : Lossy
    Stream size                 : 462 MiB (3%)
    Title                       : Español Latino AC3 [CinemaniaHDD]
    Language                    : Spanish
    Service kind                : Complete Main
    Default                     : Yes
    Forced                      : Yes

    Audio #2
    ID                          : 3
    Format                      : DTS XLL
    Format/Info                 : Digital Theater Systems
    Commercial name             : DTS-HD Master Audio
    Codec ID                    : A_DTS
    Duration                    : 1 h 40 min
    Bit rate mode               : Variable
    Bit rate                    : 1 728 kb/s
    Channel(s)                  : 6 channels
    Channel layout              : C L R Ls Rs LFE
    Sampling rate               : 48.0 kHz
    Frame rate                  : 93.750 FPS (512 SPF)
    Bit depth                   : 16 bits
    Compression mode            : Lossless
    Stream size                 : 1.22 GiB (7%)
    Title                       : Ingles [CinemaniaHDD]
    Language                    : English
    Default                     : No
    Forced                      : No

    Audio #3
    ID                          : 4
    Format                      : E-AC-3
    Format/Info                 : Enhanced AC-3
    Commercial name             : Dolby Digital Plus
    Codec ID                    : A_EAC3
    Duration                    : 1 h 40 min
    Bit rate mode               : Constant
    Bit rate                    : 640 kb/s
    Channel(s)                  : 6 channels
    Channel layout              : L R C LFE Ls Rs
    Sampling rate               : 48.0 kHz
    Frame rate                  : 31.250 FPS (1536 SPF)
    Compression mode            : Lossy
    Stream size                 : 462 MiB (3%)
    Title                       : Español Latino EAC3 [CinemaniaHDD]
    Language                    : Spanish
    Service kind                : Complete Main
    Default                     : No
    Forced                      : No

    Text #1
    ID                          : 5
    Format                      : UTF-8
    Codec ID                    : S_TEXT/UTF8
    Codec ID/Info               : UTF-8 Plain Text
    Duration                    : 1 h 36 min
    Bit rate                    : 1 b/s
    Count of elements           : 19
    Stream size                 : 763 Bytes (0%)
    Title                       : Forzados-SRT [CinemaniaHDD]
    Language                    : Spanish
    Default                     : Yes
    Forced                      : Yes

    Text #2
    ID                          : 6
    Format                      : UTF-8
    Codec ID                    : S_TEXT/UTF8
    Codec ID/Info               : UTF-8 Plain Text
    Duration                    : 1 h 40 min
    Bit rate                    : 53 b/s
    Count of elements           : 1172
    Stream size                 : 39.4 KiB (0%)
    Title                       : Español-SRT [CinemaniaHDD]
    Language                    : Spanish
    Default                     : No
    Forced                      : No

    Text #3
    ID                          : 7
    Format                      : PGS
    Muxing mode                 : zlib
    Codec ID                    : S_HDMV/PGS
    Codec ID/Info               : Picture based subtitle format used on BDs/HD-DVDs
    Duration                    : 1 h 40 min
    Bit rate                    : 31.0 kb/s
    Count of elements           : 1790
    Stream size                 : 22.3 MiB (0%)
    Title                       : Ingles [CinemaniaHDD]
    Language                    : English
    Default                     : No
    Forced                      : No

    Menu
    00:00:00.000                : Chapter 01
    00:05:59.359                : Chapter 02
    00:12:25.161                : Chapter 03
    00:18:53.132                : Chapter 04
    00:22:30.432                : Chapter 05
    00:29:20.175                : Chapter 06
    00:35:47.061                : Chapter 07
    00:39:06.427                : Chapter 08
    00:49:07.986                : Chapter 09
    00:59:53.631                : Chapter 10
    01:03:35.353                : Chapter 11
    01:09:43.762                : Chapter 12
    01:15:15.010                : Chapter 13
    01:18:54.020                : Chapter 14
    01:25:13.149                : Chapter 15
    01:31:34.155                : Chapter 16

  • Peso: 16.3 GiB

Sinopsis

Descargar Todo Es Cierto (2018) REMUX 1080p Latino. Corre el año 1613. William Shakespeare es reconocido como uno de los mejores escritores de su tiempo, sus obras son aclamadas y sus malos momentos económicos parecen haber quedado atrás. Sin embargo, todo cambia cuando el popular Globe Theatre se quema dejando tras de sí poco menos que sus cenizas, obligando al dramaturgo a volver a su ciudad natal, Stratford, donde debe enfrentarse a un complejo pasado y su propia familia, a la que no le une nada más que sus lazos sanguíneos. Perseguido por los recuerdos de la muerte de su único hijo, Hamnet, Shakespeare hace todo lo posible por arreglar la relación con su mujer e hijas. No será fácil, dado que para ello primero debe aceptar su propio fracaso como padre y marido, además de lidiar con los problemas familiares que quiso dejar atrás en el pasado.

Español Latino EAC3 5.1 & AC3 5.1 Web – Ingles DTS-HD 5.1 BD
Resubido Y Actualizado con mejor Audio Latino en 5.1!!

Ficha técnica

  • Titulo original: All Is True
  • Fecha de lanzamiento: 21-12-2018 (United Kingdom)
  • Director: Kenneth Branagh
  • Género: Drama, Remux

Video trailer de la película

Enlaces de descarga

Rip de Bluray

Descargar Todo Es Cierto (2018) REMUX 1080p Latino




Aportes de DPeliculasHDmega la pass es:dpeliculashdmega.org Aportes de CinemaniaHD la pass es:cinemaniahdd.com
Guardado en : Drama , Remux

Películas relacionadas

descargar Todo Es Cierto (2018) REMUX 1080p Latino Full 1080p 1080p gratis, Todo Es Cierto (2018) REMUX 1080p Latino Full 1080p mega 1 link, Todo Es Cierto (2018) REMUX 1080p Latino Full 1080p pelicula completa, descargar Todo Es Cierto (2018) REMUX 1080p Latino Full 1080p gratis en mega.

Todo Es Cierto (2018) REMUX 1080p Latino pelicula full hd, Todo Es Cierto (2018) REMUX 1080p Latino mega latino, Todo Es Cierto (2018) REMUX 1080p Latino 4k latino, Todo Es Cierto (2018) REMUX 1080p Latino pelicula completa, Todo Es Cierto (2018) REMUX 1080p Latino descargar gratis, descargar Todo Es Cierto (2018) REMUX 1080p Latino pelicula latino, Todo Es Cierto (2018) REMUX 1080p Latino 1 link mega, Todo Es Cierto (2018) REMUX 1080p Latino 1 link google drive, Todo Es Cierto (2018) REMUX 1080p Latino hd 1080p latino.
Comentarios 0