×

¿Problemas para descargar con Mozilla, EDGE? Deshabilita la opción "Abrir vinculos en una pestaña nueva" tal como lo muestra ésta imagen.

Todo en todas partes al mismo tiempo (2022) REMUX 1080p Latino

290 vistas

Información de Todo en todas partes al mismo tiempo (2022) REMUX 1080p Latino

Datos de la película

  • Calidad: Full 1080p
  • Audio: Se especifica abajo de la Sinopsis
  • Subtitulos: Español Latino PGS - Ingles PGS
  • Resolución: 1920x1080p
  • Formato: MKV
  • Codec: H.264
  • Encoder: Melkor
  • Mediainfo: Clic para Mostrar Datos Ver
  • Todo En Todas Partes Al Mismo Tiempo (2022) REMUX 1080p Latino.mkv
    Format                      : Matroska
    Format version              : Version 4
    File size                   : 29.6 GiB
    Duration                    : 2 h 20 min
    Overall bit rate mode       : Variable
    Overall bit rate            : 30.2 Mb/s
    Movie name                  : Everything Everywhere All At Once (2022) CinemaniaHDD.Net
    Encoded date                : UTC 2022-08-14 06:39:40
    Writing application         : mkvmerge v56.1.0 ('My Friend') 64-bit
    Writing library             : libebml v1.4.2 + libmatroska v1.6.4
    Attachments                 : CINEMANIAHD.png

    Video
    ID                          : 1
    ID in the original source m : 4113 (0x1011)
    Format                      : AVC
    Format/Info                 : Advanced Video Codec
    Format profile              : High@L4.1
    Format settings             : CABAC / 4 Ref Frames
    Format settings, CABAC      : Yes
    Format settings, Reference  : 4 frames
    Codec ID                    : V_MPEG4/ISO/AVC
    Duration                    : 2 h 20 min
    Bit rate mode               : Variable
    Bit rate                    : 24.8 Mb/s
    Maximum bit rate            : 32.0 Mb/s
    Width                       : 1 920 pixels
    Height                      : 1 080 pixels
    Display aspect ratio        : 16:9
    Frame rate mode             : Constant
    Frame rate                  : 23.976 (24000/1001) FPS
    Color space                 : YUV
    Chroma subsampling          : 4:2:0
    Bit depth                   : 8 bits
    Scan type                   : Progressive
    Bits/(Pixel*Frame)          : 0.499
    Stream size                 : 24.3 GiB (82%)
    Title                       : REMUX HD1080p [CinemaniaHDD]
    Default                     : Yes
    Forced                      : Yes
    Original source medium      : Blu-ray

    Audio #1
    ID                          : 2
    Format                      : E-AC-3
    Format/Info                 : Enhanced AC-3
    Codec ID                    : A_EAC3
    Duration                    : 2 h 19 min
    Bit rate                    : 820 kb/s
    Channel(s)                  : 6 channels
    Sampling rate               : 48.0 kHz
    Frame rate                  : 31.250 FPS (1536 SPF)
    Compression mode            : Lossy
    Stream size                 : 818 MiB (3%)
    Title                       : Español Latino DDP [CinemaniaHDD]
    Language                    : Spanish
    Default                     : No
    Forced                      : No

    Audio #2
    ID                          : 3
    ID in the original source m : 4353 (0x1101)
    Format                      : MLP FBA 16-ch
    Format/Info                 : Meridian Lossless Packing FBA with 16-channel presentation
    Commercial name             : Dolby TrueHD with Dolby Atmos
    Codec ID                    : A_TRUEHD
    Duration                    : 2 h 20 min
    Bit rate mode               : Variable
    Bit rate                    : 3 228 kb/s
    Maximum bit rate            : 5 148 kb/s
    Channel(s)                  : 8 channels
    Channel layout              : L R C LFE Ls Rs Lb Rb
    Sampling rate               : 48.0 kHz
    Frame rate                  : 1 200.000 FPS (40 SPF)
    Compression mode            : Lossless
    Stream size                 : 3.16 GiB (11%)
    Title                       : Ingles THD[CinemaniaHDD]
    Language                    : English
    Default                     : No
    Forced                      : No
    Original source medium      : Blu-ray
    Number of dynamic objects   : 13
    Bed channel count           : 1 channel
    Bed channel configuration   : LFE

    Audio #3
    ID                          : 4
    Format                      : AC-3
    Format/Info                 : Audio Coding 3
    Commercial name             : Dolby Digital
    Codec ID                    : A_AC3
    Duration                    : 2 h 20 min
    Bit rate mode               : Constant
    Bit rate                    : 640 kb/s
    Channel(s)                  : 6 channels
    Channel layout              : L R C LFE Ls Rs
    Sampling rate               : 48.0 kHz
    Frame rate                  : 31.250 FPS (1536 SPF)
    Compression mode            : Lossy
    Stream size                 : 642 MiB (2%)
    Title                       : Español Latino AC3 [CinemaniaHDD]
    Language                    : Spanish
    Service kind                : Complete Main
    Default                     : Yes
    Forced                      : Yes

    Audio #4
    ID                          : 5
    ID in the original source m : 4353 (0x1101)
    Format                      : AC-3
    Format/Info                 : Audio Coding 3
    Commercial name             : Dolby Digital
    Codec ID                    : A_AC3
    Duration                    : 2 h 20 min
    Bit rate mode               : Constant
    Bit rate                    : 640 kb/s
    Channel(s)                  : 6 channels
    Channel layout              : L R C LFE Ls Rs
    Sampling rate               : 48.0 kHz
    Frame rate                  : 31.250 FPS (1536 SPF)
    Compression mode            : Lossy
    Stream size                 : 642 MiB (2%)
    Title                       : Ingles AC3 [CinemaniaHDD]
    Language                    : English
    Service kind                : Complete Main
    Default                     : No
    Forced                      : No
    Original source medium      : Blu-ray

    Text #1
    ID                          : 6
    Format                      : PGS
    Muxing mode                 : zlib
    Codec ID                    : S_HDMV/PGS
    Codec ID/Info               : Picture based subtitle format used on BDs/HD-DVDs
    Duration                    : 2 h 17 min
    Bit rate                    : 31.0 kb/s
    Count of elements           : 3428
    Stream size                 : 30.5 MiB (0%)
    Title                       : Español-PGS [CinemaniaHDD]
    Language                    : Spanish
    Default                     : No
    Forced                      : No

    Text #2
    ID                          : 7
    ID in the original source m : 4609 (0x1201)
    Format                      : PGS
    Muxing mode                 : zlib
    Codec ID                    : S_HDMV/PGS
    Codec ID/Info               : Picture based subtitle format used on BDs/HD-DVDs
    Duration                    : 2 h 12 min
    Bit rate                    : 38.8 kb/s
    Count of elements           : 5114
    Stream size                 : 36.8 MiB (0%)
    Title                       : Ingles-PGS [CinemaniaHDD]
    Language                    : English
    Default                     : No
    Forced                      : No
    Original source medium      : Blu-ray

    Text #3
    ID                          : 8
    Format                      : UTF-8
    Codec ID                    : S_TEXT/UTF8
    Codec ID/Info               : UTF-8 Plain Text
    Duration                    : 2 h 9 min
    Bit rate                    : 5 b/s
    Count of elements           : 136
    Stream size                 : 4.80 KiB (0%)
    Title                       : Forzados-SRT [CinemaniaHDD]
    Language                    : Spanish
    Default                     : Yes
    Forced                      : Yes

    Text #4
    ID                          : 9
    Format                      : UTF-8
    Codec ID                    : S_TEXT/UTF8
    Codec ID/Info               : UTF-8 Plain Text
    Duration                    : 2 h 11 min
    Bit rate                    : 59 b/s
    Count of elements           : 1846
    Stream size                 : 57.6 KiB (0%)
    Title                       : Español-SRT [CinemaniaHDD]
    Language                    : Spanish
    Default                     : No
    Forced                      : No

    Menu
    00:00:00.000                : Chapter 01
    00:12:13.274                : Chapter 02
    00:22:09.369                : Chapter 03
    00:31:27.135                : Chapter 04
    00:42:34.718                : Chapter 05
    00:51:33.256                : Chapter 06
    01:00:16.362                : Chapter 07
    01:10:23.469                : Chapter 08
    01:18:33.625                : Chapter 09
    01:28:30.513                : Chapter 10
    01:37:59.582                : Chapter 11
    01:47:21.810                : Chapter 12
    01:57:19.073                : Chapter 13
    02:10:33.367                : Chapter 14

  • Peso: 29.6 GiB

Sinopsis

Descargar Todo en todas partes al mismo tiempo (2022) REMUX 1080p Latino. Una anciana inmigrante china se ve envuelta en una loca aventura, donde solo ella puede salvar lo que es importante para ella al conectarse con las vidas que podría haber llevado en otros universos.

Español Latino EAC3 & AC3 5.1 Web – Ingles TrueHD 7.1 & AC3 5.1 BD

Nota: Version Bluray REMUX  Limpio Sin Subtitulos Pegados Al Video, Disponible Solo Para VIP!!! 😀

Ficha técnica

Video trailer de la película

Enlaces de descarga

Rip de Bluray

Descargar Todo en todas partes al mismo tiempo (2022) REMUX 1080p Latino


Aportes de DPeliculasHDmega la pass es:dpeliculashdmega.org Aportes de CinemaniaHD la pass es:cinemaniahdd.com
Guardado en : Acción , Aventura , Ciencia ficción , Remux

Películas relacionadas

descargar Todo en todas partes al mismo tiempo (2022) REMUX 1080p Latino Full 1080p 1080p gratis, Todo en todas partes al mismo tiempo (2022) REMUX 1080p Latino Full 1080p mega 1 link, Todo en todas partes al mismo tiempo (2022) REMUX 1080p Latino Full 1080p pelicula completa, descargar Todo en todas partes al mismo tiempo (2022) REMUX 1080p Latino Full 1080p gratis en mega.

Todo en todas partes al mismo tiempo (2022) REMUX 1080p Latino pelicula full hd, Todo en todas partes al mismo tiempo (2022) REMUX 1080p Latino mega latino, Todo en todas partes al mismo tiempo (2022) REMUX 1080p Latino 4k latino, Todo en todas partes al mismo tiempo (2022) REMUX 1080p Latino pelicula completa, Todo en todas partes al mismo tiempo (2022) REMUX 1080p Latino descargar gratis, descargar Todo en todas partes al mismo tiempo (2022) REMUX 1080p Latino pelicula latino, Todo en todas partes al mismo tiempo (2022) REMUX 1080p Latino 1 link mega, Todo en todas partes al mismo tiempo (2022) REMUX 1080p Latino 1 link google drive, Todo en todas partes al mismo tiempo (2022) REMUX 1080p Latino hd 1080p latino.
Comentarios 0