×

¿Problemas para descargar con Mozilla, EDGE? Deshabilita la opción "Abrir vinculos en una pestaña nueva" tal como lo muestra ésta imagen.

Todo en todas partes al mismo tiempo (2022) REMUX 4K UHD HDR Latino

312 vistas

Información de Todo en todas partes al mismo tiempo (2022) REMUX 4K UHD HDR Latino

Datos de la película

  • Calidad: 4K HDR
  • Audio: Se especifica abajo de la Sinopsis
  • Subtitulos: Español Latino PGS - Ingles PGS
  • Resolución: 3840x2160p
  • Formato: MKV
  • Codec: HEVC
  • Encoder: Melkor
  • Mediainfo: Clic para Mostrar Datos Ver
  • Todo En Todas Partes Al Mismo Tiempo (2022) REMUX UHD HDR Latino.mkv
    Format                      : Matroska
    Format version              : Version 4
    File size                   : 73.9 GiB
    Duration                    : 2 h 20 min
    Overall bit rate mode       : Variable
    Overall bit rate            : 75.4 Mb/s
    Movie name                  : Everything Everywhere All at Once (2022) CinemaniaHDD.Net
    Encoded date                : UTC 2022-08-17 05:37:20
    Writing application         : mkvmerge v56.1.0 ('My Friend') 64-bit
    Writing library             : libebml v1.4.2 + libmatroska v1.6.4
    Attachments                 : CINEMANIAHD.png

    Video
    ID                          : 1
    ID in the original source m : 4113 (0x1011)
    Format                      : HEVC
    Format/Info                 : High Efficiency Video Coding
    Format profile              : Main 10@L5.1@High
    HDR format                  : Dolby Vision, Version 1.0, dvhe.07.06, BL+EL+RPU, Blu-ray compatible / SMPTE ST 2086, HDR10 compatible
    Codec ID                    : V_MPEGH/ISO/HEVC
    Duration                    : 2 h 20 min
    Bit rate                    : 69.2 Mb/s
    Width                       : 3 840 pixels
    Height                      : 2 160 pixels
    Display aspect ratio        : 16:9
    Frame rate mode             : Constant
    Frame rate                  : 23.976 (24000/1001) FPS
    Color space                 : YUV
    Chroma subsampling          : 4:2:0 (Type 2)
    Bit depth                   : 10 bits
    Bits/(Pixel*Frame)          : 0.348
    Stream size                 : 67.8 GiB (92%)
    Title                       : REMUX 2160p HDR [Bluray]
    Default                     : Yes
    Forced                      : Yes
    Color range                 : Limited
    Color primaries             : BT.2020
    Transfer characteristics    : PQ
    Matrix coefficients         : BT.2020 non-constant
    Mastering display color pri : BT.2020
    Mastering display luminance : min: 0.0001 cd/m2, max: 1000 cd/m2
    Maximum Content Light Level : 1041 cd/m2
    Maximum Frame-Average Light : 206 cd/m2
    Original source medium      : Blu-ray

    Audio #1
    ID                          : 2
    Format                      : E-AC-3
    Format/Info                 : Enhanced AC-3
    Codec ID                    : A_EAC3
    Duration                    : 2 h 19 min
    Bit rate                    : 820 kb/s
    Channel(s)                  : 6 channels
    Sampling rate               : 48.0 kHz
    Frame rate                  : 31.250 FPS (1536 SPF)
    Compression mode            : Lossy
    Stream size                 : 818 MiB (1%)
    Title                       : Español Latino DDP [CinemaniaHDD]
    Language                    : Spanish
    Default                     : No
    Forced                      : No

    Audio #2
    ID                          : 3
    Format                      : MLP FBA 16-ch
    Format/Info                 : Meridian Lossless Packing FBA with 16-channel presentation
    Commercial name             : Dolby TrueHD with Dolby Atmos
    Codec ID                    : A_TRUEHD
    Duration                    : 2 h 19 min
    Bit rate mode               : Variable
    Bit rate                    : 4 004 kb/s
    Maximum bit rate            : 5 706 kb/s
    Channel(s)                  : 8 channels
    Channel layout              : L R C LFE Ls Rs Lb Rb
    Sampling rate               : 48.0 kHz
    Frame rate                  : 1 200.000 FPS (40 SPF)
    Compression mode            : Lossless
    Delay relative to video     : 10 ms
    Stream size                 : 3.91 GiB (5%)
    Title                       : Ingles [CinemaniaHDD]
    Language                    : English
    Default                     : No
    Forced                      : No
    Number of dynamic objects   : 13
    Bed channel count           : 1 channel
    Bed channel configuration   : LFE

    Audio #3
    ID                          : 4
    Format                      : AC-3
    Format/Info                 : Audio Coding 3
    Commercial name             : Dolby Digital
    Codec ID                    : A_AC3
    Duration                    : 2 h 20 min
    Bit rate mode               : Constant
    Bit rate                    : 640 kb/s
    Channel(s)                  : 6 channels
    Channel layout              : L R C LFE Ls Rs
    Sampling rate               : 48.0 kHz
    Frame rate                  : 31.250 FPS (1536 SPF)
    Compression mode            : Lossy
    Stream size                 : 642 MiB (1%)
    Title                       : Español Latino AC3 [CinemaniaHDD]
    Language                    : Spanish
    Service kind                : Complete Main
    Default                     : Yes
    Forced                      : Yes

    Audio #4
    ID                          : 5
    ID in the original source m : 4353 (0x1101)
    Format                      : AC-3
    Format/Info                 : Audio Coding 3
    Commercial name             : Dolby Digital
    Codec ID                    : A_AC3
    Duration                    : 2 h 20 min
    Bit rate mode               : Constant
    Bit rate                    : 640 kb/s
    Channel(s)                  : 6 channels
    Channel layout              : L R C LFE Ls Rs
    Sampling rate               : 48.0 kHz
    Frame rate                  : 31.250 FPS (1536 SPF)
    Compression mode            : Lossy
    Stream size                 : 642 MiB (1%)
    Title                       : Ingles AC3 [CinemaniaHDD]
    Language                    : English
    Service kind                : Complete Main
    Default                     : No
    Forced                      : No
    Original source medium      : Blu-ray

    Text #1
    ID                          : 6
    Format                      : PGS
    Muxing mode                 : zlib
    Codec ID                    : S_HDMV/PGS
    Codec ID/Info               : Picture based subtitle format used on BDs/HD-DVDs
    Duration                    : 2 h 17 min
    Bit rate                    : 31.0 kb/s
    Count of elements           : 3428
    Stream size                 : 30.5 MiB (0%)
    Title                       : Sub_Esp [PGS]
    Language                    : Spanish
    Default                     : No
    Forced                      : No

    Text #2
    ID                          : 7
    ID in the original source m : 4769 (0x12A1)
    Format                      : PGS
    Muxing mode                 : zlib
    Codec ID                    : S_HDMV/PGS
    Codec ID/Info               : Picture based subtitle format used on BDs/HD-DVDs
    Duration                    : 2 h 12 min
    Bit rate                    : 38.8 kb/s
    Count of elements           : 5110
    Stream size                 : 36.8 MiB (0%)
    Title                       : Sub_Eng [PGS]
    Language                    : English
    Default                     : No
    Forced                      : No
    Original source medium      : Blu-ray

    Text #3
    ID                          : 8
    Format                      : UTF-8
    Codec ID                    : S_TEXT/UTF8
    Codec ID/Info               : UTF-8 Plain Text
    Duration                    : 2 h 9 min
    Bit rate                    : 5 b/s
    Count of elements           : 136
    Stream size                 : 4.80 KiB (0%)
    Title                       : Sub_Forzados
    Language                    : Spanish
    Default                     : Yes
    Forced                      : Yes

    Text #4
    ID                          : 9
    Format                      : UTF-8
    Codec ID                    : S_TEXT/UTF8
    Codec ID/Info               : UTF-8 Plain Text
    Duration                    : 2 h 11 min
    Bit rate                    : 59 b/s
    Count of elements           : 1846
    Stream size                 : 57.6 KiB (0%)
    Title                       : Sub_Esp
    Language                    : Spanish
    Default                     : No
    Forced                      : No

    Menu
    00:00:00.000                : 00:00:00.000
    00:12:13.274                : 00:12:13.274
    00:22:09.370                : 00:22:09.370
    00:31:27.135                : 00:31:27.135
    00:42:34.719                : 00:42:34.719
    00:51:33.257                : 00:51:33.257
    01:00:16.363                : 01:00:16.363
    01:10:23.469                : 01:10:23.469
    01:18:33.626                : 01:18:33.626
    01:28:30.514                : 01:28:30.514
    01:37:59.582                : 01:37:59.582
    01:47:21.810                : 01:47:21.810
    01:57:19.074                : 01:57:19.074
    02:10:33.367                : 02:10:33.367

  • Peso: 73.9 GiB

Sinopsis

Descargar TTodo en todas partes al mismo tiempo (2022) REMUX 4K UHD HDR Latino. Cuando una ruptura interdimensional altera la realidad, Evelyn (Michelle Yeoh), una inmigrante china en Estados Unidos, se ve envuelta en una aventura salvaje en la que solo ella puede salvar el mundo. Perdida en los mundos infinitos del multiverso, esta heroína inesperada debe canalizar sus nuevos poderes para luchar contra los extraños y desconcertantes peligros del multiverso mientras el destino del mundo pende de un hilo.

Español Latino EAC3 & AC3 5.1 Web – Ingles TrueHD 7.1 & AC3 5.1 BD

Nota: Version Bluray REMUX 4K-UHD Limpio Sin Subtitulos Pegados Al Video.
Disponible Solo Para VIP!!!

Ficha técnica

Video trailer de la película

Enlaces de descarga

Rip de Bluray

Descargar Todo en todas partes al mismo tiempo (2022) REMUX 4K UHD HDR Latino


Aportes de DPeliculasHDmega la pass es:dpeliculashdmega.org Aportes de CinemaniaHD la pass es:cinemaniahdd.com

Películas relacionadas

descargar Todo en todas partes al mismo tiempo (2022) REMUX 4K UHD HDR Latino 4K HDR 1080p gratis, Todo en todas partes al mismo tiempo (2022) REMUX 4K UHD HDR Latino 4K HDR mega 1 link, Todo en todas partes al mismo tiempo (2022) REMUX 4K UHD HDR Latino 4K HDR pelicula completa, descargar Todo en todas partes al mismo tiempo (2022) REMUX 4K UHD HDR Latino 4K HDR gratis en mega.

Todo en todas partes al mismo tiempo (2022) REMUX 4K UHD HDR Latino pelicula full hd, Todo en todas partes al mismo tiempo (2022) REMUX 4K UHD HDR Latino mega latino, Todo en todas partes al mismo tiempo (2022) REMUX 4K UHD HDR Latino 4k latino, Todo en todas partes al mismo tiempo (2022) REMUX 4K UHD HDR Latino pelicula completa, Todo en todas partes al mismo tiempo (2022) REMUX 4K UHD HDR Latino descargar gratis, descargar Todo en todas partes al mismo tiempo (2022) REMUX 4K UHD HDR Latino pelicula latino, Todo en todas partes al mismo tiempo (2022) REMUX 4K UHD HDR Latino 1 link mega, Todo en todas partes al mismo tiempo (2022) REMUX 4K UHD HDR Latino 1 link google drive, Todo en todas partes al mismo tiempo (2022) REMUX 4K UHD HDR Latino hd 1080p latino.
Comentarios 0