×

¿Problemas para descargar con Mozilla, EDGE? Deshabilita la opción "Abrir vinculos en una pestaña nueva" tal como lo muestra ésta imagen.

Toda la sangre (2022) Primera Temporada AMZN WEB-DL 1080p Latino

939 vistas

Información de Toda la sangre (2022) Primera Temporada AMZN WEB-DL 1080p Latino

Datos de la película

  • Calidad: 1080p
  • Audio: Español Latino AC3 5.1
  • Subtitulos: Ingles SRT
  • Resolución: 1920x1080
  • Formato: MKV
  • Codec: H.264
  • Encoder: cinemaniahdd
  • Mediainfo: Clic para Mostrar Datos Ver
  • Toda La Sangre S01E01 AMZN WEB-DL 1080p Latino [CNMNHDD].mkv
    Format                      : Matroska
    Format version              : Version 4
    File size                   : 3.51 GiB
    Duration                    : 47 min 7 s
    Overall bit rate mode       : Constant
    Overall bit rate            : 10.7 Mb/s
    Movie name                  : Toda La Sangre S01E01 - La espiga de fuego [1080p] - CinemaniaHDD.Net
    Encoded date                : UTC 2022-09-15 23:30:58
    Writing application         : mkvmerge v56.1.0 ('My Friend') 64-bit
    Writing library             : libebml v1.4.2 + libmatroska v1.6.4

    Video
    ID                          : 1
    Format                      : AVC
    Format/Info                 : Advanced Video Codec
    Format profile              : High@L4
    Format settings             : CABAC / 4 Ref Frames
    Format settings, CABAC      : Yes
    Format settings, Reference  : 4 frames
    Codec ID                    : V_MPEG4/ISO/AVC
    Duration                    : 47 min 7 s
    Bit rate mode               : Constant
    Bit rate                    : 9 380 kb/s
    Nominal bit rate            : 10 000 kb/s
    Width                       : 1 920 pixels
    Height                      : 1 080 pixels
    Display aspect ratio        : 16:9
    Frame rate mode             : Constant
    Frame rate                  : 23.976 (24000/1001) FPS
    Color space                 : YUV
    Chroma subsampling          : 4:2:0
    Bit depth                   : 8 bits
    Scan type                   : Progressive
    Bits/(Pixel*Frame)          : 0.189
    Stream size                 : 3.09 GiB (88%)
    Title                       : CinemaniaHDD
    Default                     : Yes
    Forced                      : No
    Color range                 : Limited
    Color primaries             : BT.709
    Transfer characteristics    : BT.709
    Matrix coefficients         : BT.709

    Audio #1
    ID                          : 2
    Format                      : AC-3
    Format/Info                 : Audio Coding 3
    Commercial name             : Dolby Digital
    Codec ID                    : A_AC3
    Duration                    : 47 min 7 s
    Bit rate mode               : Constant
    Bit rate                    : 640 kb/s
    Channel(s)                  : 6 channels
    Channel layout              : L R C LFE Ls Rs
    Sampling rate               : 48.0 kHz
    Frame rate                  : 31.250 FPS (1536 SPF)
    Compression mode            : Lossy
    Stream size                 : 216 MiB (6%)
    Title                       : Español latino [CinemaniaHDD]
    Language                    : Spanish
    Service kind                : Complete Main
    Default                     : Yes
    Forced                      : No

    Audio #2
    ID                          : 3
    Format                      : E-AC-3
    Format/Info                 : Enhanced AC-3
    Commercial name             : Dolby Digital Plus
    Codec ID                    : A_EAC3
    Duration                    : 47 min 7 s
    Bit rate mode               : Constant
    Bit rate                    : 640 kb/s
    Channel(s)                  : 6 channels
    Channel layout              : L R C LFE Ls Rs
    Sampling rate               : 48.0 kHz
    Frame rate                  : 31.250 FPS (1536 SPF)
    Compression mode            : Lossy
    Stream size                 : 216 MiB (6%)
    Title                       : Español latino / E-AC3 [CinemaniaHDD]
    Language                    : Spanish
    Service kind                : Complete Main
    Default                     : No
    Forced                      : No

     

  • Peso: 3.51 GiB Aprox ---- 35 GiB in 10 Chapters.

Sinopsis

Casasola, un periodista de nota roja, recorre la ciudad de México junto a la teniente Mondragón persiguiendo a un asesino serial que recrea antiguos ritos aztecas en sus crímenes.

Ficha técnica

  • Titulo original: Toda la sangre
  • Fecha de lanzamiento: 15-09-2022 (MX)
  • Género: Drama, Series

Video trailer de la película

Enlaces de descarga

Rip de Bluray

Descargar Toda la sangre (2022) Primera Temporada AMZN WEB-DL 1080p Latino




Aportes de DPeliculasHDmega la pass es:dpeliculashdmega.org Aportes de CinemaniaHD la pass es:cinemaniahdd.com Aportes recientes:cinemaniahdd.net
Guardado en : Drama , Series

Películas relacionadas

descargar Toda la sangre (2022) Primera Temporada AMZN WEB-DL 1080p Latino 1080p 1080p gratis, Toda la sangre (2022) Primera Temporada AMZN WEB-DL 1080p Latino 1080p mega 1 link, Toda la sangre (2022) Primera Temporada AMZN WEB-DL 1080p Latino 1080p serie completa, descargar Toda la sangre (2022) Primera Temporada AMZN WEB-DL 1080p Latino 1080p gratis en mega.

Toda la sangre (2022) Primera Temporada AMZN WEB-DL 1080p Latino pelicula full hd, Toda la sangre (2022) Primera Temporada AMZN WEB-DL 1080p Latino mega latino, Toda la sangre (2022) Primera Temporada AMZN WEB-DL 1080p Latino 4k latino, Toda la sangre (2022) Primera Temporada AMZN WEB-DL 1080p Latino pelicula completa, Toda la sangre (2022) Primera Temporada AMZN WEB-DL 1080p Latino descargar gratis, descargar Toda la sangre (2022) Primera Temporada AMZN WEB-DL 1080p Latino pelicula latino, Toda la sangre (2022) Primera Temporada AMZN WEB-DL 1080p Latino 1 link mega, Toda la sangre (2022) Primera Temporada AMZN WEB-DL 1080p Latino 1 link google drive, Toda la sangre (2022) Primera Temporada AMZN WEB-DL 1080p Latino hd 1080p latino.
Comentarios 4