×

¿Problemas para descargar con Mozilla, EDGE? Deshabilita la opción "Abrir vinculos en una pestaña nueva" tal como lo muestra ésta imagen.

Tortugas Ninja: Caos mutante (2023) 1080p Latino-CMHDD

272 vistas

Información de Tortugas Ninja: Caos mutante (2023) 1080p Latino-CMHDD

Datos de la película

  • Calidad: 1080p
  • Audio: Español Latino AC3 5.1 BLURAY - Ingles AC3 5.1 BLURAY
  • Subtitulos: Español Latino SRT - Ingles SRT
  • Resolución: 1920x804p
  • Formato: MKV
  • Codec: H.264
  • Encoder: CinefiloCool
  • Mediainfo: Clic para Mostrar Datos Ver
  • TMNT.Mutant.Mayhem.2023.Bluray.1080p.x264.Latino-CC@CMHDD.mkv
    Format                      : Matroska
    Format version              : Version 4
    File size                   : 3.16 GiB
    Duration                    : 1 h 39 min
    Overall bit rate            : 4 560 kb/s
    Movie name                  : Teenage Mutant Ninja Turtles. Mutant Mayhem (2023) CinemaniaHDD.Net
    Encoded date                : UTC 2023-11-16 16:52:17
    Writing application         : mkvmerge v56.1.0 ('My Friend') 64-bit
    Writing library             : libebml v1.4.2 + libmatroska v1.6.4
    Cover                       : Yes
    Attachments                 : cover.jpg / CINEMANIAHD.png

    Video
    ID                          : 1
    Format                      : AVC
    Format/Info                 : Advanced Video Codec
    Format profile              : High@L4.1
    Format settings             : CABAC / 5 Ref Frames
    Format settings, CABAC      : Yes
    Format settings, Reference  : 5 frames
    Codec ID                    : V_MPEG4/ISO/AVC
    Duration                    : 1 h 39 min
    Bit rate                    : 3 500 kb/s
    Width                       : 1 920 pixels
    Height                      : 804 pixels
    Display aspect ratio        : 2.40:1
    Frame rate mode             : Constant
    Frame rate                  : 23.976 (24000/1001) FPS
    Color space                 : YUV
    Chroma subsampling          : 4:2:0
    Bit depth                   : 8 bits
    Scan type                   : Progressive
    Bits/(Pixel*Frame)          : 0.095
    Stream size                 : 2.41 GiB (76%)
    Title                       : HD1080p [CinemaniaHDD]
    Writing library             : x264 core 163 r3059 b684ebe0
    Encoding settings           : cabac=1 / ref=5 / deblock=1:-1:-1 / analyse=0x3:0x133 / me=umh / subme=9 / psy=1 / psy_rd=1.00:0.15 / mixed_ref=1 / me_range=16 / chroma_me=1 / trellis=2 / 8x8dct=1 / cqm=0 / deadzone=21,11 / fast_pskip=1 / chroma_qp_offset=-3 / threads=24 / lookahead_threads=2 / sliced_threads=0 / nr=0 / decimate=1 / interlaced=0 / bluray_compat=0 / constrained_intra=0 / bframes=3 / b_pyramid=2 / b_adapt=2 / b_bias=0 / direct=3 / weightb=1 / open_gop=0 / weightp=2 / keyint=240 / keyint_min=24 / scenecut=40 / intra_refresh=0 / rc_lookahead=60 / rc=abr / mbtree=1 / bitrate=3500 / ratetol=1.0 / qcomp=0.60 / qpmin=0 / qpmax=69 / qpstep=4 / vbv_maxrate=62500 / vbv_bufsize=78125 / nal_hrd=none / filler=0 / ip_ratio=1.40 / aq=1:1.00
    Default                     : Yes
    Forced                      : Yes
    Color range                 : Limited
    Color primaries             : BT.709
    Transfer characteristics    : BT.709
    Matrix coefficients         : BT.709

    Audio #1
    ID                          : 2
    ID in the original source m : 4356 (0x1104)
    Format                      : AC-3
    Format/Info                 : Audio Coding 3
    Commercial name             : Dolby Digital
    Codec ID                    : A_AC3
    Duration                    : 1 h 39 min
    Bit rate mode               : Constant
    Bit rate                    : 640 kb/s
    Channel(s)                  : 6 channels
    Channel layout              : L R C LFE Ls Rs
    Sampling rate               : 48.0 kHz
    Frame rate                  : 31.250 FPS (1536 SPF)
    Compression mode            : Lossy
    Delay relative to video     : -5 ms
    Stream size                 : 455 MiB (14%)
    Title                       : Español Latino [CinemaniaHDD]
    Language                    : Spanish
    Service kind                : Complete Main
    Default                     : Yes
    Forced                      : Yes
    Original source medium      : Blu-ray

    Audio #2
    ID                          : 3
    Format                      : AC-3
    Format/Info                 : Audio Coding 3
    Commercial name             : Dolby Digital
    Codec ID                    : A_AC3
    Duration                    : 1 h 39 min
    Bit rate mode               : Constant
    Bit rate                    : 448 kb/s
    Channel(s)                  : 6 channels
    Channel layout              : L R C LFE Ls Rs
    Sampling rate               : 48.0 kHz
    Frame rate                  : 31.250 FPS (1536 SPF)
    Compression mode            : Lossy
    Delay relative to video     : -5 ms
    Stream size                 : 318 MiB (10%)
    Title                       : Ingles [CinemaniaHDD]
    Language                    : English
    Service kind                : Complete Main
    Default                     : No
    Forced                      : No

    Text #1
    ID                          : 4
    Format                      : UTF-8
    Codec ID                    : S_TEXT/UTF8
    Codec ID/Info               : UTF-8 Plain Text
    Duration                    : 1 h 38 min
    Bit rate                    : 0 b/s
    Count of elements           : 36
    Stream size                 : 731 Bytes (0%)
    Title                       : Forzados-SRT [CinemaniaHDD]
    Language                    : Spanish
    Default                     : Yes
    Forced                      : Yes

    Text #2
    ID                          : 5
    Format                      : UTF-8
    Codec ID                    : S_TEXT/UTF8
    Codec ID/Info               : UTF-8 Plain Text
    Duration                    : 1 h 38 min
    Bit rate                    : 65 b/s
    Count of elements           : 1396
    Stream size                 : 47.6 KiB (0%)
    Title                       : Español-SRT [CinemaniaHDD]
    Language                    : Spanish
    Default                     : No
    Forced                      : No

    Text #3
    ID                          : 6
    Format                      : UTF-8
    Codec ID                    : S_TEXT/UTF8
    Codec ID/Info               : UTF-8 Plain Text
    Duration                    : 1 h 32 min
    Bit rate                    : 77 b/s
    Count of elements           : 1608
    Stream size                 : 52.4 KiB (0%)
    Title                       : Ingles-SRT [CinemaniaHDD]
    Language                    : English
    Default                     : No
    Forced                      : No

    Menu
    00:00:00.000                : Chapter 01
    00:04:50.373                : Chapter 02
    00:11:13.464                : Chapter 03
    00:17:31.341                : Chapter 04
    00:26:04.646                : Chapter 05
    00:33:23.334                : Chapter 06
    00:43:46.790                : Chapter 07
    00:53:43.553                : Chapter 08
    00:58:21.372                : Chapter 09
    01:06:32.863                : Chapter 10
    01:14:57.743                : Chapter 11
    01:21:23.712                : Chapter 12
    01:26:46.951                : Chapter 13
    01:29:37.497                : Chapter 14

  • Peso: 3.16 GiB

Sinopsis

Descargar Tortugas Ninja: Caos mutante (2023) 1080p Latino-CMHDD. Después de pasar años apartados del mundo humano, los hermanos Tortuga se proponen ganarse el corazón de los habitantes de Nueva York y que les acepten como quinceañeros normales, llevando a cabo actos heroicos. Su nueva amiga April O’Neil les ayuda a enfrentarse a un misterioso sindicato del crimen, pero pronto se ven superados ante el ataque de un ejército de mutantes que se abalanza sobre ellos.

Ficha técnica

Video trailer de la película

Enlaces de descarga

Rip de Bluray

Descargar Tortugas Ninja: Caos mutante (2023) 1080p Latino-CMHDD




Aportes de DPeliculasHDmega la pass es:dpeliculashdmega.org Aportes de CinemaniaHD la pass es:cinemaniahdd.com Aportes recientes:cinemaniahdd.net

Películas relacionadas

descargar Tortugas Ninja: Caos mutante (2023) 1080p Latino-CMHDD 1080p 1080p gratis, Tortugas Ninja: Caos mutante (2023) 1080p Latino-CMHDD 1080p mega 1 link, Tortugas Ninja: Caos mutante (2023) 1080p Latino-CMHDD 1080p pelicula completa, descargar Tortugas Ninja: Caos mutante (2023) 1080p Latino-CMHDD 1080p gratis en mega.

Tortugas Ninja: Caos mutante (2023) 1080p Latino-CMHDD pelicula full hd, Tortugas Ninja: Caos mutante (2023) 1080p Latino-CMHDD mega latino, Tortugas Ninja: Caos mutante (2023) 1080p Latino-CMHDD 4k latino, Tortugas Ninja: Caos mutante (2023) 1080p Latino-CMHDD pelicula completa, Tortugas Ninja: Caos mutante (2023) 1080p Latino-CMHDD descargar gratis, descargar Tortugas Ninja: Caos mutante (2023) 1080p Latino-CMHDD pelicula latino, Tortugas Ninja: Caos mutante (2023) 1080p Latino-CMHDD 1 link mega, Tortugas Ninja: Caos mutante (2023) 1080p Latino-CMHDD 1 link google drive, Tortugas Ninja: Caos mutante (2023) 1080p Latino-CMHDD hd 1080p latino.
Comentarios 0