×

¿Problemas para descargar con Mozilla, EDGE? Deshabilita la opción "Abrir vinculos en una pestaña nueva" tal como lo muestra ésta imagen.

Titanic (1997) REMUX 4K HDR Latino – CMHDD

127 vistas

Información de Titanic (1997) REMUX 4K HDR Latino – CMHDD

Datos de la película

  • Calidad: 4K HDR
  • Audio: Español Latino AC3 5.1 BLURAY - Ingles AC3 5.1 BLURAY
  • Subtitulos: Español Latino PGS
  • Resolución: 3840x1600p
  • Formato: MKV
  • Codec: H.264
  • Encoder: Dracarys
  • Mediainfo: Clic para Mostrar Datos Ver
  • Format                      : Matroska
    Format version              : Version 4
    File size                   : 73.3 GiB
    Duration                    : 3 h 14 min
    Overall bit rate mode       : Variable
    Overall bit rate            : 53.9 Mb/s
    Movie name                  : Titanic (1997) REMUX 4K HDR Latino - CMHDD
    Encoded date                : UTC 2023-12-17 23:54:15
    Writing application         : mkvmerge v47.0.0 ('Black Flag') 64-bit
    Writing library             : libebml v1.3.10 + libmatroska v1.5.2

    Video
    ID                          : 1
    ID in the original source m : 4113 (0x1011)
    Format                      : HEVC
    Format/Info                 : High Efficiency Video Coding
    Format profile              : Main 10@L5.1@High
    HDR format                  : SMPTE ST 2086, HDR10 compatible
    Codec ID                    : V_MPEGH/ISO/HEVC
    Duration                    : 3 h 14 min
    Bit rate                    : 49.8 Mb/s
    Width                       : 3 840 pixels
    Height                      : 2 160 pixels
    Display aspect ratio        : 16:9
    Frame rate mode             : Constant
    Frame rate                  : 23.976 (24000/1001) FPS
    Color space                 : YUV
    Chroma subsampling          : 4:2:0 (Type 2)
    Bit depth                   : 10 bits
    Bits/(Pixel*Frame)          : 0.250
    Stream size                 : 67.7 GiB (92%)
    Language                    : English
    Default                     : Yes
    Forced                      : No
    Color range                 : Limited
    Color primaries             : BT.2020
    Transfer characteristics    : PQ
    Matrix coefficients         : BT.2020 non-constant
    Mastering display color pri : BT.2020
    Mastering display luminance : min: 0.0001 cd/m2, max: 1000 cd/m2
    Maximum Content Light Level : 283 cd/m2
    Maximum Frame-Average Light : 196 cd/m2
    Original source medium      : Blu-ray

    Audio #1
    ID                          : 2
    Format                      : AC-3
    Format/Info                 : Audio Coding 3
    Commercial name             : Dolby Digital
    Codec ID                    : A_AC3
    Duration                    : 3 h 14 min
    Bit rate mode               : Constant
    Bit rate                    : 640 kb/s
    Channel(s)                  : 6 channels
    Channel layout              : L R C LFE Ls Rs
    Sampling rate               : 48.0 kHz
    Frame rate                  : 31.250 FPS (1536 SPF)
    Compression mode            : Lossy
    Stream size                 : 892 MiB (1%)
    Language                    : Spanish
    Service kind                : Complete Main
    Default                     : Yes
    Forced                      : No

    Audio #2
    ID                          : 3
    Format                      : AC-3
    Format/Info                 : Audio Coding 3
    Commercial name             : Dolby Digital
    Codec ID                    : A_AC3
    Duration                    : 3 h 14 min
    Bit rate mode               : Constant
    Bit rate                    : 640 kb/s
    Channel(s)                  : 6 channels
    Channel layout              : L R C LFE Ls Rs
    Sampling rate               : 48.0 kHz
    Frame rate                  : 31.250 FPS (1536 SPF)
    Compression mode            : Lossy
    Stream size                 : 891 MiB (1%)
    Language                    : English
    Service kind                : Complete Main
    Default                     : No
    Forced                      : No

    Audio #3
    ID                          : 4
    Format                      : MLP FBA 16-ch
    Format/Info                 : Meridian Lossless Packing FBA with 16-channel presentation
    Commercial name             : Dolby TrueHD with Dolby Atmos
    Codec ID                    : A_TRUEHD
    Duration                    : 3 h 14 min
    Bit rate mode               : Variable
    Bit rate                    : 2 710 kb/s
    Maximum bit rate            : 4 335 kb/s
    Channel(s)                  : 8 channels
    Channel layout              : L R C LFE Ls Rs Lb Rb
    Sampling rate               : 48.0 kHz
    Frame rate                  : 1 200.000 FPS (40 SPF)
    Compression mode            : Lossless
    Stream size                 : 3.69 GiB (5%)
    Language                    : English
    Default                     : No
    Forced                      : No
    Number of dynamic objects   : 13
    Bed channel count           : 1 channel
    Bed channel configuration   : LFE

    Text #1
    ID                          : 5
    Format                      : UTF-8
    Codec ID                    : S_TEXT/UTF8
    Codec ID/Info               : UTF-8 Plain Text
    Duration                    : 54 min 25 s
    Bit rate                    : 0 b/s
    Frame rate                  : 0.001 FPS
    Count of elements           : 4
    Stream size                 : 140 Bytes (0%)
    Title                       : Forzado
    Language                    : Spanish
    Default                     : Yes
    Forced                      : No

    Text #2
    ID                          : 6
    Format                      : UTF-8
    Codec ID                    : S_TEXT/UTF8
    Codec ID/Info               : UTF-8 Plain Text
    Duration                    : 3 h 1 min
    Bit rate                    : 43 b/s
    Frame rate                  : 0.188 FPS
    Count of elements           : 2046
    Stream size                 : 57.1 KiB (0%)
    Language                    : Spanish
    Default                     : No
    Forced                      : No

    Text #3
    ID                          : 7
    Format                      : PGS
    Muxing mode                 : zlib
    Codec ID                    : S_HDMV/PGS
    Codec ID/Info               : Picture based subtitle format used on BDs/HD-DVDs
    Duration                    : 54 min 25 s
    Bit rate                    : 561 b/s
    Frame rate                  : 0.002 FPS
    Count of elements           : 8
    Stream size                 : 224 KiB (0%)
    Title                       : Forzado
    Language                    : Spanish
    Default                     : No
    Forced                      : No

    Text #4
    ID                          : 8
    Format                      : PGS
    Muxing mode                 : zlib
    Codec ID                    : S_HDMV/PGS
    Codec ID/Info               : Picture based subtitle format used on BDs/HD-DVDs
    Duration                    : 3 h 1 min
    Bit rate                    : 29.7 kb/s
    Frame rate                  : 0.377 FPS
    Count of elements           : 4092
    Stream size                 : 38.5 MiB (0%)
    Language                    : Spanish
    Default                     : No
    Forced                      : No

    Menu
    00:00:00.000                : en:Opening Credits
    00:01:20.705                : en:Ghost Ship
    00:04:35.988                : en:Into the Wreck
    00:08:22.130                : en:The Keldysh
    00:10:42.771                : en:The Woman in the Picture
    00:12:48.646                : en:Old Rose Arrives
    00:16:48.428                : en:Reflections of the Past
    00:20:03.748                : en:Back to Titanic
    00:23:34.875                : en:A Lucky Hand
    00:26:22.543                : en:Leaving Port
    00:28:59.366                : en:Cherbourg
    00:29:33.525                : en:Ode to Titanic
    00:34:55.931                : en:First Glance
    00:36:44.622                : en:"You Jump, I Jump"
    00:42:55.159                : en:An Invitation to Dinner
    00:45:22.098                : en:The Heart of the Ocean
    00:47:07.620                : en:Sketches and Stories
    00:53:29.043                : en:Learning New Things
    00:56:43.987                : en:Dinner with Jack
    01:05:28.052                : en:A Real Party
    01:10:15.965                : en:A Cold Breakfast
    01:14:02.358                : en:Sunday Prayer
    01:16:06.690                : en:"They've Got You Trapped"
    01:19:55.044                : en:Flying
    01:22:46.506                : en:"That Was the Last Time..."
    01:23:36.056                : en:The Drawing
    01:28:17.629                : en:"My Heart Was Pounding"
    01:29:15.854                : en:"Find Her"
    01:32:48.274                : en:Two Souls United
    01:36:55.104                : en:"Iceberg Right Ahead!"
    01:44:37.149                : en:An Honest Thief
    01:46:17.041                : en:A Mathmatical Certainty
    01:47:54.848                : en:A Stricken Relationship
    01:50:07.105                : en:Andrews Tells Rose
    01:52:17.401                : en:Women and Children First
    01:53:50.328                : en:Third Class Patience
    01:55:17.832                : en:A Small Token of Appreciation
    01:56:06.881                : en:"Goodbye, Mother"
    01:57:49.233                : en:"Can Anybody Hear Me?"
    02:06:34.341                : en:A View From the Lifeboats
    02:08:45.972                : en:Third Class Panic
    02:11:18.083                : en:Starting to Fall Apart
    02:15:38.551                : en:"Get on the Boat, Rose"
    02:19:39.458                : en:Cal Spurned
    02:21:20.559                : en:Flooding Below Decks
    02:25:24.762                : en:Two Tragic Bullets
    02:27:24.423                : en:Questions of Character
    02:29:03.272                : en:Captain Smith
    02:29:52.696                : en:Nearer My God to Thee
    02:33:27.536                : en:Shattered Dreams
    02:36:48.361                : en:At the Siren
    02:38:29.879                : en:Prayer for the Dying
    02:40:30.667                : en:Death of Titanic
    02:44:56.641                : en:Sea of Humanity
    02:47:44.809                : en:In the Lifeboats
    02:49:18.527                : en:The Promise
    02:52:05.611                : en:"We Waited Too Long"
    02:53:37.328                : en:"I'll Never Let Go"
    02:57:49.496                : en:Never an Absolution
    02:59:31.306                : en:The Carpathia
    03:01:25.253                : en:Expedition's End
    03:03:09.649                : en:Rose's Secret
    03:04:53.878                : en:A Promise Dept
    03:07:15.645                : en:End Credits

     

  • Peso: 73.3 GiB

Sinopsis

Durante las labores de recuperación de los restos del famoso Titanic, una anciana norteamericana se pone en contacto con la expedición para acudir a una plataforma flotante instalada en el Mar del Norte y asistir ‘in situ’ a la recuperación de sus recuerdos. A través de su memoria reviviremos los acontecimientos que marcaron el siniestro más famoso del siglo XX: el hundimiento del trasatlántico más lujoso del mundo, la máquina más sofisticada de su tiempo, considerada «insumergible», que sucumbió a las heladas aguas del Atlántico en abril de 1912, llevándose consigo la vida de mil quinientas personas, más de la mitad del pasaje. En los recueros de la anciana hay cabida para algo más que la tragedia, la historia de amor que vivió con un joven pasajero de tercera clase, un pintor aficionado que había ganado su pasaje en una partida las cartas en una taberna de Southampton.

Ficha técnica

Video trailer de la película

Enlaces de descarga

Rip de Bluray

Descargar Titanic (1997) REMUX 4K HDR Latino – CMHDD




Aportes de DPeliculasHDmega la pass es:dpeliculashdmega.org Aportes de CinemaniaHD la pass es:cinemaniahdd.com Aportes recientes:cinemaniahdd.net
Guardado en : Drama , Romance

Películas relacionadas

descargar Titanic (1997) REMUX 4K HDR Latino – CMHDD 4K HDR 1080p gratis, Titanic (1997) REMUX 4K HDR Latino – CMHDD 4K HDR mega 1 link, Titanic (1997) REMUX 4K HDR Latino – CMHDD 4K HDR pelicula completa, descargar Titanic (1997) REMUX 4K HDR Latino – CMHDD 4K HDR gratis en mega.

Titanic (1997) REMUX 4K HDR Latino – CMHDD pelicula full hd, Titanic (1997) REMUX 4K HDR Latino – CMHDD mega latino, Titanic (1997) REMUX 4K HDR Latino – CMHDD 4k latino, Titanic (1997) REMUX 4K HDR Latino – CMHDD pelicula completa, Titanic (1997) REMUX 4K HDR Latino – CMHDD descargar gratis, descargar Titanic (1997) REMUX 4K HDR Latino – CMHDD pelicula latino, Titanic (1997) REMUX 4K HDR Latino – CMHDD 1 link mega, Titanic (1997) REMUX 4K HDR Latino – CMHDD 1 link google drive, Titanic (1997) REMUX 4K HDR Latino – CMHDD hd 1080p latino.
Comentarios 0