×

¿Problemas para descargar con Mozilla, EDGE? Deshabilita la opción "Abrir vinculos en una pestaña nueva" tal como lo muestra ésta imagen.

Titanic (1997) REMUX 1080p Latino – CMHDD

310 vistas

Información de Titanic (1997) REMUX 1080p Latino – CMHDD

Datos de la película

  • Calidad: Full 1080p
  • Audio: Español Latino AC3 5.1 BLURAY - Ingles DTS 5.1 BLURAY
  • Subtitulos: Español Latino PGS
  • Resolución: 1920x1080p
  • Formato: MKV
  • Codec: H.264
  • Encoder: Dracarys
  • Mediainfo: Clic para Mostrar Datos Ver
  • Format                      : Matroska
    Format version              : Version 4
    File size                   : 39.3 GiB
    Duration                    : 3 h 14 min
    Overall bit rate mode       : Variable
    Overall bit rate            : 28.9 Mb/s
    Movie name                  : Titanic (1997) REMUX 1080p Latino - CMHDD
    Encoded date                : UTC 2021-09-29 18:21:23
    Writing application         : mkvmerge v17.0.0 ('Be Ur Friend') 64-bit
    Writing library             : libebml v1.3.5 + libmatroska v1.4.8

    Video
    ID                          : 1
    Format                      : AVC
    Format/Info                 : Advanced Video Codec
    Format profile              : High@L4.1
    Format settings             : CABAC / 2 Ref Frames
    Format settings, CABAC      : Yes
    Format settings, Reference  : 2 frames
    Format settings, GOP        : M=3, N=24
    Codec ID                    : V_MPEG4/ISO/AVC
    Duration                    : 3 h 14 min
    Bit rate                    : 24.1 Mb/s
    Width                       : 1 920 pixels
    Height                      : 1 080 pixels
    Display aspect ratio        : 16:9
    Frame rate mode             : Constant
    Frame rate                  : 23.976 (24000/1001) FPS
    Color space                 : YUV
    Chroma subsampling          : 4:2:0
    Bit depth                   : 8 bits
    Scan type                   : Progressive
    Bits/(Pixel*Frame)          : 0.485
    Stream size                 : 32.8 GiB (84%)
    Default                     : Yes
    Forced                      : No

    Audio #1
    ID                          : 2
    Format                      : DTS XLL
    Format/Info                 : Digital Theater Systems
    Commercial name             : DTS-HD Master Audio
    Codec ID                    : A_DTS
    Duration                    : 3 h 14 min
    Bit rate mode               : Variable
    Bit rate                    : 3 891 kb/s
    Channel(s)                  : 6 channels
    Channel layout              : C L R Ls Rs LFE
    Sampling rate               : 48.0 kHz
    Frame rate                  : 93.750 FPS (512 SPF)
    Bit depth                   : 24 bits
    Compression mode            : Lossless
    Delay relative to video     : 2 ms
    Stream size                 : 5.30 GiB (13%)
    Language                    : English
    Default                     : No
    Forced                      : No

    Audio #2
    ID                          : 3
    Format                      : AC-3
    Format/Info                 : Audio Coding 3
    Commercial name             : Dolby Digital
    Format settings             : Dolby Surround
    Codec ID                    : A_AC3
    Duration                    : 3 h 14 min
    Bit rate mode               : Constant
    Bit rate                    : 224 kb/s
    Channel(s)                  : 2 channels
    Channel layout              : L R
    Sampling rate               : 48.0 kHz
    Frame rate                  : 31.250 FPS (1536 SPF)
    Compression mode            : Lossy
    Delay relative to video     : 23 ms
    Stream size                 : 312 MiB (1%)
    Language                    : English
    Service kind                : Complete Main
    Default                     : No
    Forced                      : No

    Audio #3
    ID                          : 4
    Format                      : AC-3
    Format/Info                 : Audio Coding 3
    Commercial name             : Dolby Digital
    Codec ID                    : A_AC3
    Duration                    : 3 h 14 min
    Bit rate mode               : Constant
    Bit rate                    : 640 kb/s
    Channel(s)                  : 6 channels
    Channel layout              : L R C LFE Ls Rs
    Sampling rate               : 48.0 kHz
    Frame rate                  : 31.250 FPS (1536 SPF)
    Compression mode            : Lossy
    Delay relative to video     : 23 ms
    Stream size                 : 892 MiB (2%)
    Language                    : Spanish
    Service kind                : Complete Main
    Default                     : Yes
    Forced                      : No

    Text
    ID                          : 5
    Format                      : PGS
    Muxing mode                 : zlib
    Codec ID                    : S_HDMV/PGS
    Codec ID/Info               : Picture based subtitle format used on BDs/HD-DVDs
    Duration                    : 3 h 1 min
    Bit rate                    : 12.8 kb/s
    Count of elements           : 4070
    Stream size                 : 16.6 MiB (0%)
    Language                    : Spanish
    Default                     : No
    Forced                      : No

    Menu
    00:00:00.000                : en:Chapter 1
    00:01:24.375                : en:Chapter 2
    00:04:39.988                : en:Chapter 3
    00:08:26.130                : en:Chapter 4
    00:10:46.771                : en:Chapter 5
    00:12:52.646                : en:Chapter 6
    00:16:52.427                : en:Chapter 7
    00:20:07.748                : en:Chapter 8
    00:23:38.875                : en:Chapter 9
    00:26:26.543                : en:Chapter 10
    00:29:03.366                : en:Chapter 11
    00:29:37.525                : en:Chapter 12
    00:34:59.930                : en:Chapter 13
    00:36:48.622                : en:Chapter 14
    00:42:59.159                : en:Chapter 15
    00:45:26.098                : en:Chapter 16
    00:47:11.620                : en:Chapter 17
    00:53:33.042                : en:Chapter 18
    00:56:47.987                : en:Chapter 19
    01:05:32.052                : en:Chapter 20
    01:10:19.965                : en:Chapter 21
    01:14:06.358                : en:Chapter 22
    01:16:10.690                : en:Chapter 23
    01:19:59.043                : en:Chapter 24
    01:22:50.506                : en:Chapter 25
    01:23:40.056                : en:Chapter 26
    01:28:21.629                : en:Chapter 27
    01:29:19.854                : en:Chapter 28
    01:32:52.274                : en:Chapter 29
    01:36:59.104                : en:Chapter 30
    01:44:41.149                : en:Chapter 31
    01:46:21.040                : en:Chapter 32
    01:47:58.846                : en:Chapter 33
    01:50:11.103                : en:Chapter 34
    01:52:21.400                : en:Chapter 35
    01:53:54.326                : en:Chapter 36
    01:55:21.830                : en:Chapter 37
    01:56:10.879                : en:Chapter 38
    01:57:53.232                : en:Chapter 39
    02:06:38.340                : en:Chapter 40
    02:08:49.971                : en:Chapter 41
    02:11:22.081                : en:Chapter 42
    02:15:42.550                : en:Chapter 43
    02:19:43.457                : en:Chapter 44
    02:21:24.558                : en:Chapter 45
    02:25:28.760                : en:Chapter 46
    02:27:28.422                : en:Chapter 47
    02:29:07.270                : en:Chapter 48
    02:29:56.695                : en:Chapter 49
    02:33:31.534                : en:Chapter 50
    02:36:52.360                : en:Chapter 51
    02:38:33.878                : en:Chapter 52
    02:40:34.665                : en:Chapter 53
    02:45:00.639                : en:Chapter 54
    02:47:48.807                : en:Chapter 55
    02:49:22.526                : en:Chapter 56
    02:52:09.609                : en:Chapter 57
    02:53:41.326                : en:Chapter 58
    02:57:53.495                : en:Chapter 59
    02:59:35.305                : en:Chapter 60
    03:01:29.252                : en:Chapter 61
    03:03:13.648                : en:Chapter 62
    03:04:57.877                : en:Chapter 63
    03:07:19.643                : en:Chapter 64

  • Peso: 39.3 GiB

Sinopsis

Durante las labores de recuperación de los restos del famoso Titanic, una anciana norteamericana se pone en contacto con la expedición para acudir a una plataforma flotante instalada en el Mar del Norte y asistir ‘in situ’ a la recuperación de sus recuerdos. A través de su memoria reviviremos los acontecimientos que marcaron el siniestro más famoso del siglo XX: el hundimiento del trasatlántico más lujoso del mundo, la máquina más sofisticada de su tiempo, considerada «insumergible», que sucumbió a las heladas aguas del Atlántico en abril de 1912, llevándose consigo la vida de mil quinientas personas, más de la mitad del pasaje. En los recueros de la anciana hay cabida para algo más que la tragedia, la historia de amor que vivió con un joven pasajero de tercera clase, un pintor aficionado que había ganado su pasaje en una partida las cartas en una taberna de Southampton.

Ficha técnica

Video trailer de la película

Enlaces de descarga

Rip de Bluray

Descargar Titanic (1997) REMUX 1080p Latino – CMHDD


Aportes de DPeliculasHDmega la pass es:dpeliculashdmega.org Aportes de CinemaniaHD la pass es:cinemaniahdd.com
Guardado en : Drama , Romance

Películas relacionadas

descargar Titanic (1997) REMUX 1080p Latino – CMHDD Full 1080p 1080p gratis, Titanic (1997) REMUX 1080p Latino – CMHDD Full 1080p mega 1 link, Titanic (1997) REMUX 1080p Latino – CMHDD Full 1080p pelicula completa, descargar Titanic (1997) REMUX 1080p Latino – CMHDD Full 1080p gratis en mega.

Titanic (1997) REMUX 1080p Latino – CMHDD pelicula full hd, Titanic (1997) REMUX 1080p Latino – CMHDD mega latino, Titanic (1997) REMUX 1080p Latino – CMHDD 4k latino, Titanic (1997) REMUX 1080p Latino – CMHDD pelicula completa, Titanic (1997) REMUX 1080p Latino – CMHDD descargar gratis, descargar Titanic (1997) REMUX 1080p Latino – CMHDD pelicula latino, Titanic (1997) REMUX 1080p Latino – CMHDD 1 link mega, Titanic (1997) REMUX 1080p Latino – CMHDD 1 link google drive, Titanic (1997) REMUX 1080p Latino – CMHDD hd 1080p latino.